Воскресіння / Risen (2016) AVC Ukr/Eng | Sub Ukr/Eng

Нові коментарі

Нова тема   Відповісти
Автор Повідомлення
staf777 
Відео Гуртом - підтримка та поширення
Відео Гуртом - підтримка та поширення


З нами з: 16.11.16
Востаннє: 16.12.19
Повідомлень: 3085

2018-08-08 10:12  
Воскресіння / Risen (2016) AVC Ukr/Eng | Sub Ukr/Eng



Жанр: драма, пригодницький, містика
Країна: США



Кінокомпанія: Affirm Films, Columbia Pictures, Liddell Entertainment, Patrick Aiello Productions
Режисер: Кевін Рейнольдс
Актори: Джозеф Файнс, Том Фелтон, Пітер Ферт, Кліфф Кертіс, Марія Ботто, Луїс Кальєха, Антоніо Хіль-Мартінес, Річард Етуілл, Стюарт Скудамор, Енді Гетергуд

Сюжет:
33 рік н.е. Римському трибуну в Юдеї дано завдання знайти зникле тіло розп'ятого напередодні єврея, який, судячи з чуток, воскрес.


Тривалість: 01:47:38
Якість: AVC

Відео:
кодек:
розмір кадру: 1080x450
бітрейт: 2003 кб/с

Аудіо # 1:
мова: українська
переклад: професійний дубльований
кодек: 2.0
бітрейт: 192 кб/с

Аудіо # 2:
мова: англійська
переклад: оригінал
кодек: 5.1
бітрейт: 448 кб/с

Субтитри # 1:
мова: українська
тип: пререндерні
формат: *.pgs

Субтитри # 2-4:
мова: англійська
тип: програмні (м'які)
формат: *.srt
Info

General
Unique ID : 194936398840233979884939998832193719652 (0x92A76280CB4A0E9E4AB09105CE604D64)
Complete name : H:\Risen (2016) AVC [UKR_ENG] [Hurtom].
Format :
Format version : Version 4 / Version 2
File size : 2.00 GiB
Duration : 1 h 47 min
Overall bit rate : 2 660 kb/s
Movie name : Risen (2016) AVC [UKR_ENG] [Hurtom]
Encoded date : UTC 2018-08-08 08:00:13
Writing application : v24.0.0 ('Beyond The Pale') 64-bit
Writing library : libebml v1.3.6 + v1.4.9
Cover : Yes
Attachments : cover.jpg.jpg

Video
ID : 1
Format : AVC
Format/Info : Advanced Video Codec
Format profile : [email protected]
Format settings : CABAC / 11 Ref Frames
Format settings, CABAC : Yes
Format settings, ReFrames : 11 frames
Codec ID : V_MPEG4/ISO/AVC
Duration : 1 h 47 min
Bit rate : 2 003 kb/s
Width : 1 080 pixels
Height : 450 pixels
Display aspect ratio : 2.40:1
Frame rate mode : Constant
Frame rate : 23.976 (24000/1001) FPS
Color space : YUV
Chroma subsampling : 4:2:0
Bit depth : 8 bits
Scan type : Progressive
Bits/(Pixel*Frame) : 0.172
Stream size : 1.51 GiB (75%)
Title : potroks
Writing library : core 146 r2538 121396c
Encoding settings : cabac=1 / ref=11 / deblock=1:-2:-2 / analyse=0x3:0x113 / me=umh / subme=11 / psy=1 / psy_rd=1.00:0.05 / mixed_ref=1 / me_range=48 / chroma_me=1 / trellis=2 / 8x8dct=1 / cqm=0 / deadzone=21,11 / fast_pskip=0 / chroma_qp_offset=-3 / threads=9 / lookahead_threads=2 / sliced_threads=0 / nr=0 / decimate=1 / interlaced=0 / bluray_compat=0 / constrained_intra=0 / bframes=12 / b_pyramid=2 / b_adapt=2 / b_bias=0 / direct=3 / weightb=1 / open_gop=0 / weightp=2 / keyint=240 / keyint_min=23 / scenecut=40 / intra_refresh=0 / rc_lookahead=60 / rc=2pass / mbtree=0 / bitrate=2003 / ratetol=1.0 / qcomp=0.70 / qpmin=0 / qpmax=69 / qpstep=4 / cplxblur=20.0 / qblur=0.5 / vbv_maxrate=14000 / vbv_bufsize=14000 / nal_hrd=none / filler=0 / ip_ratio=1.40 / pb_ratio=1.30 / aq=1:0.80
Language : English
Default : Yes
Forced : No

Audio #1
ID : 2
Format : AC-3
Format/Info : Audio Coding 3
Codec ID : A_AC3
Duration : 1 h 47 min
Bit rate mode : Constant
Bit rate : 192 kb/s
Channel(s) : 2 channels
Channel positions : Front: L R
Sampling rate : 48.0 kHz
Frame rate : 31.250 FPS (1536 SPF)
Bit depth : 16 bits
Compression mode : Lossy
Delay relative to video : 7 ms
Stream size : 148 MiB (7%)
Title : [UA-Dub-iTunes]192 Kb/s
Language : Ukrainian
Service kind : Complete Main
Default : Yes
Forced : Yes

Audio #2
ID : 3
Format : AC-3
Format/Info : Audio Coding 3
Codec ID : A_AC3
Duration : 1 h 47 min
Bit rate mode : Constant
Bit rate : 448 kb/s
Channel(s) : 6 channels
Channel positions : Front: L C R, Side: L R, LFE
Sampling rate : 48.0 kHz
Frame rate : 31.250 FPS (1536 SPF)
Bit depth : 16 bits
Compression mode : Lossy
Stream size : 345 MiB (17%)
Title : Original | DD 5.1 @ 448 kbps
Language : English
Service kind : Complete Main
Default : No
Forced : No

Text #1
ID : 4
Format : PGS
Muxing mode : zlib
Codec ID : S_HDMV/PGS
Codec ID/Info : Picture based subtitle format used on BDs/HD-DVDs
Duration : 1 h 37 min
Bit rate : 36.6 kb/s
Count of elements : 1980
Stream size : 25.5 MiB (1%)
Title : Sub
Language : Ukrainian
Default : No
Forced : No

Text #2
ID : 5
Format : UTF-8
Codec ID : S_TEXT/UTF8
Codec ID/Info : UTF-8 Plain Text
Duration : 1 h 38 min
Bit rate : 37 b/s
Count of elements : 1005
Stream size : 26.7 KiB (0%)
Title : Full
Language : English
Default : No
Forced : No

Text #3
ID : 6
Format : UTF-8
Codec ID : S_TEXT/UTF8
Codec ID/Info : UTF-8 Plain Text
Duration : 1 h 38 min
Bit rate : 44 b/s
Count of elements : 1237
Stream size : 31.8 KiB (0%)
Title : SDH
Language : English
Default : No
Forced : No

Text #4
ID : 7
Format : UTF-8
Codec ID : S_TEXT/UTF8
Codec ID/Info : UTF-8 Plain Text
Duration : 1 h 39 min
Bit rate : 60 b/s
Count of elements : 1238
Stream size : 44.0 KiB (0%)
Title : SDH-Colored
Language : English
Default : No
Forced : No

Menu
00:00:00.000 : en:Chapter 01
00:06:50.034 : en:Chapter 02
00:14:18.732 : en:Chapter 03
00:21:47.889 : en:Chapter 04
00:27:34.903 : en:Chapter 05
00:33:21.082 : en:Chapter 06
00:40:03.609 : en:Chapter 07
00:46:19.193 : en:Chapter 08
00:54:06.243 : en:Chapter 09
01:00:06.185 : en:Chapter 10
01:07:53.027 : en:Chapter 11
01:13:54.847 : en:Chapter 12
01:19:46.364 : en:Chapter 13
01:25:42.387 : en:Chapter 14
01:33:16.132 : en:Chapter 15
01:38:41.832 : en:Chapter 16
Скріншоти




Джерело:


 Трекер:    Зареєстрований   

Завантажити / скачати фільм українською



відео для новачків



 Зареєстрований:   2018-08-08 16:25
 Розмір:   2 GB 
 Оцінка фільму:   9.1/10 (Голосів: 17)
   
Інші релізи
   Воскресіння / Risen (2016) Remux 1080p Ukr/Eng | Sub Ukr/Eng staf777  4 / 0   21.02 GB   2016-12-04 14:56 
   Воскресіння / Risen (2016) AngryBirdsUA  7 / 0   1.45 GB   2016-07-05 21:59 
   Воскресіння / Risen (2016) 720p Ukr/Eng | Sub Ukr/Eng 11FrYkT  3 / 0   4.6 GB   2016-07-05 20:30 
   Воскресіння / Risen (2016) 1080p Ukr/Eng | Sub Ukr/Eng 11FrYkT  1 / 0   10.85 GB   2016-07-05 20:28 
bot 
робот


З нами з: 30.09.07
Востаннє: 26.05.05
Повідомлень: 22673

2018-08-08 16:24  
Тему перенесено з Анонси релізів до форуму Фільми


staf777

kryk-v.ya. 
Попереджень: 1
Попереджень: 1 


З нами з: 14.02.14
Востаннє: 16.12.19
Повідомлень: 1709

2018-08-08 19:38  
то файне кіно...
chornyj rulya 
Новенький


З нами з: 11.12.17
Востаннє: 31.10.19
Повідомлень: 1

2019-03-12 01:18  
На You Tub шукав неміг знайти, одні якісь трейлери і "неділі".
Ваш часовий пояс: GMT + 2 Години

Нова тема   Відповісти