Аварія / Дорогою / Breakdown (1997) 1080p 2xUkr/Eng | Sub Eng

Нові коментарі

Нова тема   Відповісти
Автор Повідомлення
Anonymous 







2018-08-08 08:14  
Аварія / Дорогою / Breakdown (1997) 1080p 2xUkr/Eng | Sub Eng

Аварія / Дорогою / Breakdown (1997) 1080p 2xUkr/Eng | Sub Eng


Жанр: трилер, кримінальний, детектив
Країна: США



Кінокомпанія: Dino De Laurentiis Company, Paramount Pictures, Spelling Films
Режисер: Джонатан Мостоу
Актори: Курт Расселл, Кетлін Кінлан, Рекс Лінн, Дж.Т. Волш, Джек Нозворті, Мойра Харріс, Кім Робіллард, М. С. Гейні, Джек МакГі, Рітч Брінклі

Сюжет:
Джефф і Емі Тейлор вирішили переїхати до нового місця проживання в Сан-Дієго на дорогому джипі. По дорозі Джефф ледь не врізався в пікап з двома місцевими відморозками. А коли джип несподівано заглух на узбіччі пустельної траси, водій попутного трейлера Ред Барр запропонував підвезти Емі до найближчого телефону, а Джеф залишився охороняти машину.
З цього моменту його життя перетворюється в кошмарний сон. У придорожньому кафе, де він домовився зустрітися з дружиною, Джефф не знаходить Емі. Виявляється, бандити вирішили взяти за викрадену жінку викуп. І тоді миролюбний Джефф, вирвавшись з-під дул здирників, сам перетворюється на безжалісного мисливця...


Тривалість: 01:33:03
Якість: 1080p [Amazon]
Відео:
кодек:
розмір кадру: 1920х816
бітрейт: 8776 кб/с

Аудіо # 1:
мова: українська
переклад: багатоголосий закадровий
кодек: 2.0
бітрейт: 192 кб/с

Аудіо # 2:
мова: українська
переклад: багатоголосий закадровий
кодек: 2.0
бітрейт: 192 кб/с

Аудіо # 3:
мова: англійська
переклад: оригінал
кодек: 5.1
бітрейт: 448 кб/с

Субтитри:
мова: англійська
тип: програмні (м'які)
формат: *.srt
Info
General
Unique ID : 250749556159080204474105072334878315505 (0xBCA49B9DAFCBC6E3AEE327C81ACC93F1)
Format :
Format version : Version 4 / Version 2
File size : 6.38 GiB
Duration : 1 h 33 min
Overall bit rate mode : Variable
Overall bit rate : 9 803 kb/s
Encoded date : UTC 2018-08-08 05:05:55
Writing application : v6.1.0 ('Old Devil') built on Mar 4 2013 09:10:42
Writing library : libebml v1.3.0 + v1.4.0

Video
ID : 1
Format : AVC
Format/Info : Advanced Video Codec
Format profile : [email protected]
Format settings : CABAC / 4 Ref Frames
Format settings, CABAC : Yes
Format settings, ReFrames : 4 frames
Codec ID : V_MPEG4/ISO/AVC
Duration : 1 h 33 min
Bit rate mode : Variable
Bit rate : 8 776 kb/s
Maximum bit rate : 15.0 Mb/s
Width : 1 920 pixels
Height : 816 pixels
Display aspect ratio : 2.35:1
Frame rate mode : Constant
Frame rate : 23.976 (24000/1001) FPS
Color space : YUV
Chroma subsampling : 4:2:0
Bit depth : 8 bits
Scan type : Progressive
Bits/(Pixel*Frame) : 0.234
Stream size : 5.71 GiB (90%)
Writing library : core 148 r2623 d5b2374
Encoding settings : cabac=1 / ref=4 / deblock=1:-1:-1 / analyse=0x3:0x133 / me=umh / subme=9 / psy=1 / psy_rd=1.00:0.15 / mixed_ref=1 / me_range=24 / chroma_me=1 / trellis=2 / 8x8dct=1 / cqm=0 / deadzone=21,11 / fast_pskip=1 / chroma_qp_offset=-3 / threads=25 / lookahead_threads=4 / sliced_threads=0 / nr=150 / decimate=1 / interlaced=0 / bluray_compat=0 / constrained_intra=0 / bframes=8 / b_pyramid=2 / b_adapt=2 / b_bias=0 / direct=3 / weightb=1 / open_gop=0 / weightp=2 / keyint=120 / keyint_min=61 / scenecut=0 / intra_refresh=0 / rc_lookahead=120 / rc=crf / mbtree=1 / crf=18.0 / qcomp=0.60 / qpmin=0 / qpmax=69 / qpstep=4 / vbv_maxrate=15000 / vbv_bufsize=31250 / crf_max=0.0 / nal_hrd=vbr / filler=0 / ip_ratio=1.40 / aq=3:1.00
Default : Yes
Forced : No
Color range : Limited
Color primaries : BT.709
Transfer characteristics : BT.709
Matrix coefficients : BT.709

Audio #1
ID : 2
Format : AC-3
Format/Info : Audio Coding 3
Codec ID : A_AC3
Duration : 1 h 33 min
Bit rate mode : Constant
Bit rate : 192 kb/s
Channel(s) : 2 channels
Channel positions : Front: L R
Sampling rate : 48.0 kHz
Frame rate : 31.250 FPS (1536 SPF)
Bit depth : 16 bits
Compression mode : Lossy
Delay relative to video : 1 s 30 ms
Stream size : 128 MiB (2%)
Title : UKR (Inter)
Language : Ukrainian
Service kind : Complete Main
Default : Yes
Forced : Yes

Audio #2
ID : 3
Format : AC-3
Format/Info : Audio Coding 3
Codec ID : A_AC3
Duration : 1 h 33 min
Bit rate mode : Constant
Bit rate : 192 kb/s
Channel(s) : 2 channels
Channel positions : Front: L R
Sampling rate : 48.0 kHz
Frame rate : 31.250 FPS (1536 SPF)
Bit depth : 16 bits
Compression mode : Lossy
Delay relative to video : 1 s 30 ms
Stream size : 128 MiB (2%)
Title : UKR (ICTV)
Language : Ukrainian
Service kind : Complete Main
Default : No
Forced : No

Audio #3
ID : 4
Format : AC-3
Format/Info : Audio Coding 3
Codec ID : A_AC3
Duration : 1 h 33 min
Bit rate mode : Constant
Bit rate : 448 kb/s
Channel(s) : 6 channels
Channel positions : Front: L C R, Side: L R, LFE
Sampling rate : 48.0 kHz
Frame rate : 31.250 FPS (1536 SPF)
Bit depth : 16 bits
Compression mode : Lossy
Stream size : 299 MiB (5%)
Title : Оригинал
Language : English
Service kind : Complete Main
Default : No
Forced : No

Text
ID : 5
Format : UTF-8
Codec ID : S_TEXT/UTF8
Codec ID/Info : UTF-8 Plain Text
Language : English
Default : No
Forced : No

Menu
00:00:00.000 : en:Opening Credits
00:02:46.024 : en:A Near Miss
00:03:48.024 : en:Last Chance For Gas
00:07:36.024 : en:Breakdown
00:10:31.024 : en:Hitching A Ride
00:13:55.024 : en:Fixing The Problem
00:15:06.024 : en:Belle's Diner
00:18:07.024 : en:Mistaken Identity
00:20:51.024 : en:No Visible Evidence
00:27:17.024 : en:Missing Persons
00:28:43.024 : en:Back At Belle's
00:31:25.024 : en:Billy Knows
00:33:20.024 : en:In Close Pursuit
00:35:59.024 : en:Down River
00:39:39.024 : en:The Exact Dollar Amount
00:44:25.024 : en:Downtown Brackett
00:51:13.024 : en:Turning The Tables
00:57:10.024 : en:Officer Down
01:00:09.024 : en:Texaco Truckstop
01:02:09.024 : en:Stowaway
01:05:27.024 : en:Home Early
01:08:55.024 : en:Unloading Truck
01:12:47.024 : en:Armed And Dangerous
01:13:58.024 : en:Den Of Thieves
01:17:10.024 : en:Getting Free
01:19:32.024 : en:Run For It
01:21:23.024 : en:Drive For Your Life
01:23:10.024 : en:The Bridge
01:24:58.024 : en:Over The Edge
01:27:40.024 : en:Revenge
01:29:29.024 : en:End Credits
Скріншоти






За українську доріжки подяка п.: JACKUS, Romario_O, aalleexx85, slavik_v_z; за постер - п.ReZoN'у.
Особиста подяка пану denixx за надану матеріальну допомогу на підтримку цього і майбутніх релізів.
Джерело:


Срібний реліз (на рейтинг впливає 50% завантаженого)
 Трекер:    Зареєстрований   

Завантажити / скачати фільм українською



відео для новачків



 Зареєстрований:   2018-08-08 08:14
 Розмір:   6.38 GB 
 Оцінка фільму:   10/10 (Голосів: 7)
   
Інші релізи
   Аварія / Дорогою / Breakdown (1997) [MP4, 640x] apvAltisimo  0 / 0   754 MB   2017-02-20 17:15 
   Аварія / Дорогою / Breakdown (1997) AVC 2xUkr/Eng | Sub Eng aalleexx85  4 / 0   1.82 GB   2014-12-07 18:09 
   Дорогою / Breakdown (1997) Ukr | sub Eng JACKUS  0 / 0   1.46 GB   2011-02-02 18:47 
Ваш часовий пояс: GMT + 2 Години

Нова тема   Відповісти