Одинак / A Man Apart (2003) 720p [Open Matte] Ukr/Eng | Sub Eng

Нові коментарі

Нова тема   Відповісти
Останній раз роздавалося drop_plz (2019-11-20)
Автор Повідомлення
Anonymous 







2018-08-08 06:48  
Одинак / A Man Apart (2003) 720p [Open Matte] Ukr/Eng | Sub Eng

Одинак / A Man Apart (2003) 720p [Open Matte] Ukr/Eng | Sub Eng


Жанр: бойовик, драма
Країна: США



Кінокомпанія: "DIA" Productions GmbH & Co. KG, Joseph Nittolo Entertainment, New Line Cinema, Newman/Tooley Films
Режисер: Ф. Гері Грей
Актори: Він Дізель, Лоренц Тейт, Тімоті Оліфант, Джино Сільва, Жаклін Обрадорс, Стів Істін, Хуан Фернандес, Джефф Кобер, Марко Родрігес, Майк Морофф

Сюжет:
Він Дизель виконує в цьому фільмі роль агента Шона Веттера, оперативника, що бореться з контрабандою наркотиків з Мексики. Після того, як голова наркоторгівлі був ув'язнений, з'являється новий таємний персонаж, відомий як Діабло, який бере в свої руки контроль над всім трафіком. Коли в ході проваленої операції вбивають дружину Веттера, він і його колега (Лоренц Тейт) повинні влитися у злочинний картель, щоб вирахувати невловимого Діабло.


Тривалість: 01:49:27
Якість: 720p [Open Matte]
Відео:
кодек:
розмір кадру: 1280х720
бітрейт: 7845 кб/с

Аудіо # 1:
мова: українська
переклад: багатоголосий закадровий
кодек: 5.1
бітрейт: 384 кб/с

Аудіо # 2:
мова: англійська
переклад: оригінал
кодек: 5.1
бітрейт: 448 кб/с

Субтитри:
мова: англійська
тип: програмні (м'які)
формат: *.srt
Info
General
Unique ID : 193680483428376260849234658931124749945 (0x91B58117B1FACD108EE115414E344679)
Format :
Format version : Version 4 / Version 2
File size : 6.64 GiB
Duration : 1 h 49 min
Overall bit rate : 8 678 kb/s
Encoded date : UTC 2018-08-08 04:41:28
Writing application : v6.1.0 ('Old Devil') built on Mar 4 2013 09:10:42
Writing library : libebml v1.3.0 + v1.4.0

Video
ID : 1
Format : AVC
Format/Info : Advanced Video Codec
Format profile : [email protected]
Format settings : CABAC / 9 Ref Frames
Format settings, CABAC : Yes
Format settings, ReFrames : 9 frames
Codec ID : V_MPEG4/ISO/AVC
Duration : 1 h 49 min
Bit rate : 7 845 kb/s
Width : 1 280 pixels
Height : 720 pixels
Display aspect ratio : 16:9
Frame rate mode : Constant
Frame rate : 24.000 FPS
Color space : YUV
Chroma subsampling : 4:2:0
Bit depth : 8 bits
Scan type : Progressive
Bits/(Pixel*Frame) : 0.355
Stream size : 5.87 GiB (88%)
Title : ~V~
Writing library : core 155 r2901 7d0ff22
Encoding settings : cabac=1 / ref=9 / deblock=1:-3:-3 / analyse=0x3:0x133 / me=umh / subme=11 / psy=1 / psy_rd=1.00:0.00 / mixed_ref=1 / me_range=32 / chroma_me=1 / trellis=2 / 8x8dct=1 / cqm=0 / deadzone=21,11 / fast_pskip=0 / chroma_qp_offset=-2 / threads=12 / lookahead_threads=1 / sliced_threads=0 / nr=0 / decimate=0 / interlaced=0 / bluray_compat=0 / constrained_intra=0 / bframes=10 / b_pyramid=2 / b_adapt=2 / b_bias=0 / direct=3 / weightb=1 / open_gop=0 / weightp=2 / keyint=240 / keyint_min=24 / scenecut=40 / intra_refresh=0 / rc=2pass / mbtree=0 / bitrate=7845 / ratetol=1.0 / qcomp=0.65 / qpmin=0 / qpmax=69 / qpstep=4 / cplxblur=20.0 / qblur=0.5 / ip_ratio=1.28 / pb_ratio=1.30 / aq=3:0.60
Language : English
Default : Yes
Forced : No

Audio #1
ID : 2
Format : AC-3
Format/Info : Audio Coding 3
Codec ID : A_AC3
Duration : 1 h 49 min
Bit rate mode : Constant
Bit rate : 384 kb/s
Channel(s) : 6 channels
Channel positions : Front: L C R, Side: L R, LFE
Sampling rate : 48.0 kHz
Frame rate : 31.250 FPS (1536 SPF)
Bit depth : 16 bits
Compression mode : Lossy
Stream size : 301 MiB (4%)
Title : UKR (ICTV)
Language : Ukrainian
Service kind : Complete Main
Default : Yes
Forced : Yes

Audio #2
ID : 3
Format : AC-3
Format/Info : Audio Coding 3
Codec ID : A_AC3
Duration : 1 h 49 min
Bit rate mode : Constant
Bit rate : 448 kb/s
Channel(s) : 6 channels
Channel positions : Front: L C R, Side: L R, LFE
Sampling rate : 48.0 kHz
Frame rate : 31.250 FPS (1536 SPF)
Bit depth : 16 bits
Compression mode : Lossy
Stream size : 351 MiB (5%)
Language : English
Service kind : Complete Main
Default : No
Forced : No

Text
ID : 4
Format : UTF-8
Codec ID : S_TEXT/UTF8
Codec ID/Info : UTF-8 Plain Text
Title : SDH
Language : English
Default : No
Forced : No

Menu
00:00:00.000 : en:20 Tons a Month
00:03:32.834 : en:No-Gun Raid
00:11:24.168 : en:Home Sweet Home
00:12:34.168 : en:The Drug War Is On
00:14:28.335 : en:Memo's New Orders
00:16:58.835 : en:Survival of the Whipped
00:21:20.169 : en:Home Invasion
00:25:04.536 : en:"Where Is Stacey?"
00:30:03.536 : en:Face to Face, Ten Feet Away
00:34:46.836 : en:Capone Can Sniff It
00:37:57.003 : en:Overdose in the Attic
00:42:46.003 : en:The New Guy's Name
00:46:25.203 : en:Hollywood Jack
00:53:01.503 : en:The Last Safe Place
00:54:50.503 : en:The Widower's Pact
00:57:24.503 : en:A Good Businessman
01:03:09.170 : en:The Deal Goes Down... in Flames
01:10:03.170 : en:"Sean, You're Done"
01:11:59.504 : en:Becoming a Monster
01:17:26.338 : en:The Gang United
01:21:08.338 : en:South of Nowhere
01:24:29.172 : en:Follow the Money
01:28:08.040 : en:The Old Haunt
01:35:40.173 : en:"If I Wanted You Dead..."
01:41:41.707 : en:Gone But Not Forgotten
01:44:22.508 : en:End Credits
Скріншоти









За українську доріжку подяка п.: drakon87, MasterYura
За український постер подяка п. Microfibra
Особиста подяка пану denixx за надану матеріальну допомогу на підтримку цього і майбутніх релізів.
Джерело:


Срібний реліз (на рейтинг впливає 50% завантаженого)
 Трекер:    Зареєстрований   

Завантажити / скачати фільм українською



відео для новачків



 Зареєстрований:   2018-08-08 06:48
 Розмір:   6.64 GB 
 Оцінка фільму:   10/10 (Голосів: 3)
   
Інші релізи
   Одинак / A Man Apart (2003) AVC [Open Matte] Ukr/Eng | Sub Eng staf777  1 / 0   3.17 GB   2018-11-19 23:08 
   Одинак / A Man Apart (2003) Ukr/Eng MasterYura  3 / 0   2.18 GB   2010-04-12 19:58 
Ваш часовий пояс: GMT + 2 Години

Нова тема   Відповісти