За подих від тебе / Dans la brume (2018) Remux 1080p Ukr/Fre

Нові коментарі

Нова тема   Відповісти
Автор Повідомлення
staf777 
Відео Гуртом - підтримка та поширення
Відео Гуртом - підтримка та поширення


З нами з: 16.11.16
Востаннє: 24.05.19
Повідомлень: 2382

2018-08-08 07:36  
За подих від тебе / Dans la brume (2018) Remux 1080p Ukr/Fre

За подих від тебе / Dans la brume (2018) Remux 1080p Ukr/Fre
Офіційний постер:



Жанр: трилер, фантастика
Країна: Франція, Канада



Кінокомпанія: Canal+, Quad Productions, TF1 Films Production
Режисер: Деніел Робі
Актори: Ромен Дюріс, Ольга Куриленко, Фантіна Ардуін, Мішель Робен, Анна Ґейлор, Рефаель Гренассія, Ерья Малатьє, Алексіс Маненті, Моріс Антоні, Робін Бард та інші

Сюжет:
Подружжя Анна та Матьє живуть у Парижі разом зі своєю невиліковно хворою донькою. Через недуг дівчинка змушена знаходитись у спеціальній барокамері. Стається землетрус і на поверхню починає підніматися токсичний газ. Невідома речовина призводить до загибелі безлічі людей по усьому місту. Вижили лише ті, хто забрався на верхні поверхи або дахи будинків. Без їжі, електроенергії та інформації люди чекають на порятунок. Та Анні і Матьє не можна гаяти часу. Кількома поверхами нижче за них у герметично закритому просторі залишилася хвора дитина.


Тривалість: 01:29:01
Якість: Remux 1080p
Відео:
кодек:
розмір кадру: 1920x1080
бітрейт: 25 Mб/с

Аудіо # 1:
мова: українська
переклад: професійний дубльований | студія ААА-sound
кодек: 2.0
бітрейт: 192 кб/с
Інформація про дубляж
Переклад: Анастасія Тихонова
Режисер дубляжу та звукорежисер перезапису: Олександр Єфімов
Ролі дублювали: Юлія Перенчук (Анна / Ольга Куриленко), Роман Чорний, Антоніна Якушева, Андрій Альохін, Дмитро Гаврилов, Ірина Грей, Ярослав Чорненький, Дмитро Завадський та інші.

Фільм дубльовано студією ААА-sound у 2018 році на замовлення компанії "Кіноманія".
Аудіо # 2:
мова: французька
переклад: оригінал
кодек: -HD MA 5.1
бітрейт: 1821 кб/с
Info
General
Unique ID : 220236517584574341358609591117864696773 (0xA5B002A9FDE9DACCB50ECC7D7586FBC5)
Complete name : G:\Фантастика\Dans la brume (2018) Remux 1080p [UKR_FRE] [Hurtom].
Format :
Format version : Version 4 / Version 2
File size : 16.8 GiB
Duration : 1 h 29 min
Overall bit rate mode : Variable
Overall bit rate : 26.9 Mb/s
Movie name : Dans la brume (2018) Remux 1080p [UKR_FRE] [Hurtom]
Encoded date : UTC 2018-08-08 05:52:21
Writing application : v24.0.0 ('Beyond The Pale') 64-bit
Writing library : libebml v1.3.6 + v1.4.9
Cover : Yes
Attachments : cover.jpg

Video
ID : 1
Format : AVC
Format/Info : Advanced Video Codec
Format profile : [email protected]
Format settings : CABAC / 3 Ref Frames
Format settings, CABAC : Yes
Format settings, ReFrames : 3 frames
Codec ID : V_MPEG4/ISO/AVC
Duration : 1 h 29 min
Bit rate mode : Variable
Bit rate : 25.0 Mb/s
Maximum bit rate : 40.0 Mb/s
Width : 1 920 pixels
Height : 1 080 pixels
Display aspect ratio : 16:9
Frame rate mode : Constant
Frame rate : 24.000 FPS
Color space : YUV
Chroma subsampling : 4:2:0
Bit depth : 8 bits
Scan type : Progressive
Bits/(Pixel*Frame) : 0.502
Stream size : 15.5 GiB (93%)
Writing library : core 135 r2345 f0c1c53
Encoding settings : cabac=1 / ref=4 / deblock=1:-1:-1 / analyse=0x3:0x133 / me=umh / subme=10 / psy=1 / psy_rd=1.00:0.15 / mixed_ref=1 / me_range=24 / chroma_me=1 / trellis=2 / 8x8dct=1 / cqm=0 / deadzone=21,11 / fast_pskip=1 / chroma_qp_offset=-3 / threads=36 / lookahead_threads=3 / sliced_threads=0 / slices=4 / nr=0 / decimate=1 / interlaced=0 / bluray_compat=1 / constrained_intra=0 / bframes=3 / b_pyramid=1 / b_adapt=2 / b_bias=0 / direct=3 / weightb=1 / open_gop=1 / weightp=1 / keyint=24 / keyint_min=1 / scenecut=40 / intra_refresh=0 / rc_lookahead=24 / rc=2pass / mbtree=1 / bitrate=25000 / ratetol=1.0 / qcomp=0.60 / qpmin=0 / qpmax=69 / qpstep=4 / cplxblur=20.0 / qblur=0.5 / vbv_maxrate=40000 / vbv_bufsize=30000 / nal_hrd=vbr / ip_ratio=1.40 / aq=1:1.00
Language : French
Default : Yes
Forced : No
Color range : Limited
Color primaries : BT.709
Transfer characteristics : BT.709
Matrix coefficients : BT.709

Audio #1
ID : 2
Format : AC-3
Format/Info : Audio Coding 3
Codec ID : A_AC3
Duration : 1 h 29 min
Bit rate mode : Constant
Bit rate : 192 kb/s
Channel(s) : 2 channels
Channel positions : Front: L R
Sampling rate : 48.0 kHz
Frame rate : 31.250 FPS (1536 SPF)
Bit depth : 16 bits
Compression mode : Lossy
Stream size : 122 MiB (1%)
Title : [UA-DUB]
Language : Ukrainian
Service kind : Complete Main
Default : Yes
Forced : Yes

Audio #2
ID : 3
Format :
Format/Info : Digital Theater Systems
Format profile : MA / Core
Codec ID : A_DTS
Duration : 1 h 29 min
Bit rate mode : Variable / Constant
Bit rate : 1 821 kb/s / 1 509 kb/s
Channel(s) : 6 channels
Channel positions : Front: L C R, Side: L R, LFE
Sampling rate : 48.0 kHz
Frame rate : 93.750 FPS (512 SPF)
Bit depth : 16 bits
Compression mode : Lossless / Lossy
Stream size : 1.13 GiB (7%)
Title : Original
Language : French
Default : No
Forced : No

Menu
00:00:00.000 : en:00:00:00.000
00:09:07.667 : en:00:09:07.667
00:14:10.208 : en:00:14:10.208
00:20:50.167 : en:00:20:50.167
00:32:08.667 : en:00:32:08.667
00:40:43.417 : en:00:40:43.417
00:50:47.875 : en:00:50:47.875
01:03:44.750 : en:01:03:44.750
01:11:55.750 : en:01:11:55.750
01:23:48.083 : en:01:23:48.083
Скріншоти



Джерело: & &
За альтернативний постер подяка Lazzarus'у.
Особиста оцінка: 0 - не дивився


Золотий реліз (завантажене не впливає на рейтинг)
 Трекер:    Зареєстрований   

Завантажити / скачати фільм українською



відео для новачків



 Зареєстрований:   2018-08-08 09:14
 Розмір:   16.75 GB 
 Оцінка фільму:   8.1/10 (Голосів: 21)
   
Інші релізи
   За подих від тебе / Dans la brume (2018) 1080p Ukr/Fre staf777  3 / 0   7.5 GB   2018-08-08 08:49 
   За подих від тебе / Dans la brume (2018) Ukr/Fre 11FrYkT  8 / 0   1.46 GB   2018-08-08 07:42 
   За подих від тебе / Dans la brume (2018) 720p Ukr/Fre 11FrYkT  6 / 0   3.31 GB   2018-08-08 07:40 
   За подих від тебе / Dans la brume (2018) AVC Ukr/Fre uafilm.tv  3 / 0   1.6 GB   2018-08-08 01:49 
Oleksa9 
VIP


З нами з: 17.05.12
Востаннє: 25.05.19
Повідомлень: 349

2018-08-10 21:08  
щьо
щє
чюдові ....
Але імена відмінюються, тож загалом може бути.

ProgBassing 
Попереджень: 1
Попереджень: 1 


З нами з: 08.03.08
Востаннє: 22.05.19
Повідомлень: 874

2018-08-10 21:13  
Oleksa9, ну хіба ж ви не бачите?!

staf777 написано:
переклад: професійний дубльований | студія ААА-sound

O_omarella! 
Свій


З нами з: 14.06.13
Востаннє: 11.05.19
Повідомлень: 116

2018-11-11 22:52  
Трохи тема не розкрита, могли і більше відіграти, але мені фільм сподобався.
ВАВУНЯ 
Поважний учасник


З нами з: 30.06.15
Востаннє: 22.05.19
Повідомлень: 248

2018-11-12 14:18  
чи очікувати на кращий звук?
дякую.

Ваш часовий пояс: GMT + 2 Години

Нова тема   Відповісти