Лише Бог прощає / Only God Forgives (2013) 1080p H.265 Eng | Sub Ukr/Eng

Нові коментарі

Нова тема   Відповісти
Автор Повідомлення
ukr_anonymous 
Забанено
Забанено


З нами з: 16.04.18
Востаннє: 17.11.19
Повідомлень: 233

2018-08-07 09:25  
Лише Бог прощає / Only God Forgives (2013) 1080p H.265 Eng | Sub Ukr/Eng

Лише Бог прощає / Only God Forgives (2013) 1080p H.265 Eng | Sub Ukr/Eng


Жанр: драма, кримінальний, трилер
Країна: Франція, Тайланд, США, Швеція



Кінокомпанія: A Grand Elephant, Bold Films, Film i Väst, Gaumont, Wild Bunch
Режисер: Ніколас Віндінґ Рефн / Nicolas Winding Refn
Актори: Раян Ґослінґ / Ryan Gosling, Крістін Скотт Томас / Kristin Scott Thomas, Вітгая Пансрінґарм / Vithaya Pansringarm, Ґордон Браун / Gordon Brown, Яїнґ Ргатга Пгонґам / Yayaying Rhatha Phongam, Том Берк / Tom Burke, Сагаяк Бунсанакіт / Sahajak Boonthanakit та інші

Сюжет:
Головний герой фільму, Джуліан, займається торгівлею наркотиків, процвітаючи у злочинному світі Банґкоку. Але пріоритети змінюються, коли мати змушує його знайти і розправитися з вбивцями його брата. На цьому шляху він зустрінеться з дуже дивним поліцейським.


Тривалість: 01:29:30
Якість:
Відео:
кодек: H.265 (HEVC)
розмір кадру: 1920 х 1032
бітрейт: 5 732 кб/с
бітова глибина: 10 біт
Увага! Перед завантаженням переконайтесь, що ваш пристрій відтворення (та/або ПЗ) підтримує H.265 (HEVC)

Аудіо # 1:
мова: англійська
переклад: оригінал
кодек: 5.1
бітрейт: 1 509 кб/с

Аудіо # 2:
мова: англійська - Comments
переклад: оригінал
кодек: 2.0
бітрейт: 192 кб/с

Субтитри # 1:
мова: українська
тип: програмні (м'які)
формат: *.srt

Переклад з англійської - Delight

Субтитри# 2-3:
мова: англійська
тип: пререндерні
формат: .pgs
Info
Код:
General
Unique ID                                : 306880125742785061712505184916496998359 (0xE6DEF65C9ACB1AB5BCA8A6E540F05FD7)
Complete name                            : E:\video\Only God Forgives (2013) 1080p H.265 [ENG].
Format                                   :
Format version                           : Version 4 / Version 2
File size                                : 4.65 GiB
Duration                                 : 1 h 29 min
Overall bit rate                         : 7 430 kb/s
Movie name                               : Only God Forgives (2013)
Encoded date                             : UTC 2018-08-07 07:01:51
Writing application                      : v20.0.0 ('I Am The Sun') 32-bit
Writing library                          : libebml v1.3.5 + v1.4.8
Cover                                    : Yes
Attachments                              : Cover.jpg

Video
ID                                       : 1
Format                                   : HEVC
Format/Info                              : High Efficiency Video Coding
Format profile                           : Main [email protected]@Main
Codec ID                                 : V_MPEGH/ISO/HEVC
Duration                                 : 1 h 29 min
Bit rate                                 : 5 732 kb/s
Width                                    : 1 920 pixels
Height                                   : 1 032 pixels
Display aspect ratio                     : 1.85:1
Frame rate mode                          : Constant
Frame rate                               : 23.976 (24000/1001) FPS
Standard                                 : Component
Color space                              : YUV
Chroma subsampling                       : 4:2:0
Bit depth                                : 10 bits
Bits/(Pixel*Frame)                       : 0.121
Stream size                              : 3.58 GiB (77%)
Default                                  : Yes
Forced                                   : No
Color range                              : Limited

Audio #1
ID                                       : 2
Format                                   :
Format/Info                              : Digital Theater Systems
Codec ID                                 : A_DTS
Duration                                 : 1 h 29 min
Bit rate mode                            : Constant
Bit rate                                 : 1 509 kb/s
Channel(s)                               : 6 channels
Channel positions                        : Front: L C R, Side: L R, LFE
Sampling rate                            : 48.0 kHz
Frame rate                               : 93.750 FPS (512 SPF)
Bit depth                                : 16 bits
Compression mode                         : Lossy
Stream size                              : 966 MiB (20%)
Language                                 : English
Default                                  : No
Forced                                   : No

Audio #2
ID                                       : 3
Format                                   : AC-3
Format/Info                              : Audio Coding 3
Codec ID                                 : A_AC3
Duration                                 : 1 h 29 min
Bit rate mode                            : Constant
Bit rate                                 : 192 kb/s
Channel(s)                               : 2 channels
Channel positions                        : Front: L R
Sampling rate                            : 48.0 kHz
Frame rate                               : 31.250 FPS (1536 SPF)
Bit depth                                : 16 bits
Compression mode                         : Lossy
Stream size                              : 123 MiB (3%)
Title                                    : Comments
Language                                 : English
Service kind                             : Complete Main
Default                                  : No
Forced                                   : No

Text #1
ID                                       : 4
Format                                   : UTF-8
Codec ID                                 : S_TEXT/UTF8
Codec ID/Info                            : UTF-8 Plain Text
Duration                                 : 1 h 23 min
Bit rate                                 : 21 b/s
Count of elements                        : 262
Stream size                              : 13.3 KiB (0%)
Title                                    : Full | Переклад з англійської - Delight
Language                                 : Ukrainian
Default                                  : Yes
Forced                                   : No

Text #2
ID                                       : 5
Format                                   : PGS
Muxing mode                              : zlib
Codec ID                                 : S_HDMV/PGS
Codec ID/Info                            : Picture based subtitle format used on BDs/HD-DVDs
Duration                                 : 1 h 25 min
Bit rate                                 : 9 714 b/s
Count of elements                        : 686
Stream size                              : 5.97 MiB (0%)
Language                                 : English
Default                                  : No
Forced                                   : No

Text #3
ID                                       : 6
Format                                   : PGS
Muxing mode                              : zlib
Codec ID                                 : S_HDMV/PGS
Codec ID/Info                            : Picture based subtitle format used on BDs/HD-DVDs
Duration                                 : 1 h 9 min
Bit rate                                 : 2 513 b/s
Count of elements                        : 128
Stream size                              : 1.25 MiB (0%)
Language                                 : English
Default                                  : No
Forced                                   : No

Menu
00:00:00.000                             : en:00:00:00.000
00:06:43.320                             : en:00:06:43.320
00:17:57.285                             : en:00:17:57.285
00:23:58.312                             : en:00:23:58.312
00:29:55.585                             : en:00:29:55.585
00:37:12.814                             : en:00:37:12.814
00:46:54.353                             : en:00:46:54.353
00:54:06.994                             : en:00:54:06.994
01:01:20.260                             : en:01:01:20.260
01:08:08.710                             : en:01:08:08.710
01:15:42.872                             : en:01:15:42.872
01:26:46.159                             : en:01:26:46.159
Скріншоти




Джерело:
Особиста оцінка: 0 - не дивився
ЗАЛИШАЙТЕСЬ ЯКОМОГА ДОВШЕ НА РОЗДАЧІ!
ЗАВАНТАЖИВ САМ - ДАЙ ЗАВАНТАЖИТИ ІНШИМ


Золотий реліз (завантажене не впливає на рейтинг)
 Трекер:    Зареєстрований   

Завантажити / скачати фільм українською



відео для новачків



 Зареєстрований:   2018-08-07 09:25
 Розмір:   4.65 GB 
 Оцінка фільму:   8.9/10 (Голосів: 8)
   
Інші релізи
11FrYkT 
Модератор відео


З нами з: 20.02.11
Востаннє: 04.12.20
Повідомлень: 7051

2018-08-08 08:14  
ukr_anonymous , мінімум 11 скріншот має бути з субтитрами
NAZARIJ007 
Частий відвідувач


З нами з: 06.06.12
Востаннє: 03.12.20
Повідомлень: 47

2018-08-08 22:53  
жахливий фреймрейт!!! картинка гальмує тут не 24 кадри на секунду а менше
ноут за 1000$ xiaomi mi notebook pro всі драйвери нові відеокарта mx150 та intel UHD620 яка 4к на 60fps перетравлює
відеопрогравач VLC останній

Не рекомедую скачувати

ukr_anonymous 
Забанено
Забанено


З нами з: 16.04.18
Востаннє: 17.11.19
Повідомлень: 233

2018-08-08 23:34  
NAZARIJ007
Пане, я і не змушую когось скачувати мої релізи. Я їх роблю для себе в колекцію. Сюди викладаю тільки тому, що можу, і можливо, комусь фільми в такому кодеку теж цікаві.

vitaliykorolyk 
Новенький


З нами з: 19.09.14
Востаннє: 11.03.19
Повідомлень: 1

2018-09-08 20:43  
не можу скачати ні цю роздачу ні першу роздачу цього фільму
люди добрі може хто на хмарі має чи ще десь бажано 1080р
буду вдячний

d1monster 
Свій


З нами з: 05.12.09
Востаннє: 04.12.20
Повідомлень: 98

2019-04-09 13:17  
Друзі, а дайте субтитри окремо, будь ласка Wink (1)
SurFutur 
VIP


З нами з: 12.03.15
Востаннє: 04.12.20
Повідомлень: 516

2019-04-09 17:18  
d1monster
Так є тут:
https://www.opensubtitles.org/uk/subtitles/7444367/only-god-forgives-uk

Ваш часовий пояс: GMT + 2 Години

Нова тема   Відповісти