Безчестя / Disgrace (2008) 1080p Ukr/Eng | Sub Ukr/Eng

Нові коментарі

Нова тема   Відповісти
Автор Повідомлення
Anonymous 







2018-08-07 05:32  
Безчестя / Disgrace (2008) 1080p Ukr/Eng | Sub Ukr/Eng

Безчестя / Disgrace (2008) 1080p Ukr/Eng | Sub Ukr/Eng


Жанр: драма
Країна: Австралія, ПАР



Кінокомпанія: Fortissimo Films, Sherman Films, Whitest Pouring Films
Режисер: Стів Джейкобс / Steve Jacobs
Актори: Джон Малкович / John Malkovich, Джессіка Гайнс / Jessica Haines, Ерік Ебоні / Eriq Ebouaney, Фіона Пресс / Fiona Press, Антоніетта Енджел / Antoinette Engel, Наталі Бекер / Natalie Becker, Антоніо Фішер / Antonio Fisher, Ізабелла Де Віллерс / Isabella De Villiers, Сінді Мказа / Cindy Mkaza, Лізель Де Кок / Liezel De Kock

Сюжет:
Професор філології Кейптаунського університету Девід Лурі звинувачений в сексуальному домаганні. Провину він визнає, але не розкаюється, за що його виганяють з ганьбою. Професор їде до своєї дочки в провінцію. Тут його чекають випробування долі, зіткнення з неминучістю страждання і смерті і усвідомлення своєї беззахисності перед хаосом життя.


Тривалість: 01:53:33
Якість: 1080p
Відео:
кодек:
розмір кадру: 1920х1072
бітрейт: 9378 кб/с

Аудіо # 1:
мова: українська
переклад: двоголосий закадровий
кодек: 2.0
бітрейт: 192 кб/с
Інформація про озвучення
Аудіо # 2:
мова: англійська
переклад: оригінал
кодек: 5.1
бітрейт: 640 кб/с

Субтитри:
мова: українська
тип: програмні (м'які)
формат: *.srt

Субтитри:
мова: англійська
тип: програмні (м'які)
формат: *.srt
Info
General
Unique ID : 189897819392732403667122721377972037714 (0x8EDCFD5B4A549B87B5AC79045FCAA852)
Format :
Format version : Version 4 / Version 2
File size : 8.10 GiB
Duration : 1 h 53 min
Overall bit rate : 10.2 Mb/s
Encoded date : UTC 2018-08-07 02:23:52
Writing application : v6.1.0 ('Old Devil') built on Mar 4 2013 09:10:42
Writing library : libebml v1.3.0 + v1.4.0

Video
ID : 1
Format : AVC
Format/Info : Advanced Video Codec
Format profile : [email protected]
Format settings : CABAC / 4 Ref Frames
Format settings, CABAC : Yes
Format settings, ReFrames : 4 frames
Codec ID : V_MPEG4/ISO/AVC
Duration : 1 h 53 min
Bit rate : 9 378 kb/s
Width : 1 920 pixels
Height : 1 072 pixels
Display aspect ratio : 16:9
Frame rate mode : Constant
Frame rate : 25.000 FPS
Color space : YUV
Chroma subsampling : 4:2:0
Bit depth : 8 bits
Scan type : Progressive
Bits/(Pixel*Frame) : 0.182
Stream size : 7.28 GiB (90%)
Title : ENG
Writing library : core 78 r1301 bcba15d
Encoding settings : cabac=1 / ref=4 / deblock=1:0:0 / analyse=0x3:0x133 / me=umh / subme=7 / psy=1 / psy_rd=1.0:0.0 / mixed_ref=1 / me_range=16 / chroma_me=1 / trellis=1 / 8x8dct=1 / cqm=0 / deadzone=21,11 / chroma_qp_offset=-2 / threads=6 / nr=0 / decimate=1 / mbaff=0 / constrained_intra=0 / bframes=3 / b_pyramid=0 / b_adapt=1 / b_bias=0 / direct=1 / wpredb=1 / keyint=250 / keyint_min=25 / scenecut=40 / rc_lookahead=40 / rc=2pass / mbtree=1 / bitrate=9378 / ratetol=1.0 / qcomp=0.60 / qpmin=10 / qpmax=51 / qpstep=4 / cplxblur=20.0 / qblur=0.5 / ip_ratio=1.40 / aq=1:1.00
Language : English
Default : No
Forced : No

Audio #1
ID : 2
Format : AC-3
Format/Info : Audio Coding 3
Codec ID : A_AC3
Duration : 1 h 53 min
Bit rate mode : Constant
Bit rate : 192 kb/s
Channel(s) : 2 channels
Channel positions : Front: L R
Sampling rate : 48.0 kHz
Frame rate : 31.250 FPS (1536 SPF)
Bit depth : 16 bits
Compression mode : Lossy
Stream size : 156 MiB (2%)
Title : UKR (ТВі)
Language : Ukrainian
Service kind : Complete Main
Default : Yes
Forced : Yes

Audio #2
ID : 3
Format : AC-3
Format/Info : Audio Coding 3
Codec ID : A_AC3
Duration : 1 h 53 min
Bit rate mode : Constant
Bit rate : 640 kb/s
Channel(s) : 6 channels
Channel positions : Front: L C R, Side: L R, LFE
Sampling rate : 48.0 kHz
Frame rate : 31.250 FPS (1536 SPF)
Bit depth : 16 bits
Compression mode : Lossy
Stream size : 520 MiB (6%)
Title : ENG
Language : English
Service kind : Complete Main
Default : No
Forced : No

Text #1
ID : 4
Format : UTF-8
Codec ID : S_TEXT/UTF8
Codec ID/Info : UTF-8 Plain Text
Title : UKR
Language : Ukrainian
Default : No
Forced : No

Text #2
ID : 5
Format : UTF-8
Codec ID : S_TEXT/UTF8
Codec ID/Info : UTF-8 Plain Text
Title : ENG
Language : English
Default : Yes
Forced : No
Скріншоти




Подяка п. OlegCena і п. karvai0 за українську доріжку
Подяка п. Tarasyk за українські субтитри
Особиста подяка пану denixx за надану матеріальну допомогу на підтримку цього і майбутніх релізів.
Джерело:


 Трекер:    Зареєстрований   

Завантажити / скачати фільм українською



відео для новачків



 Зареєстрований:   2018-08-07 05:32
 Розмір:   8.1 GB 
 Оцінка фільму:   9.4/10 (Голосів: 7)
   
Інші релізи
   Безчестя / Disgrace (2008) Ukr/Eng | Sub Ukr/Eng karvai0  3 / 0   2.18 GB   2014-02-04 13:29 
Ваш часовий пояс: GMT + 2 Години

Нова тема   Відповісти