Мучениці / Martyrs (2015) Remux 1080p Ukr/Eng | Sub Eng

Нові коментарі

Нова тема   Відповісти
Автор Повідомлення
staf777 
Відео Гуртом - підтримка та поширення
Відео Гуртом - підтримка та поширення


З нами з: 16.11.16
Востаннє: 22.09.20
Повідомлень: 4027

2018-08-06 22:20  
Мучениці / Martyrs (2015) Remux 1080p Ukr/Eng | Sub Eng

Мучениці / Martyrs (2015) Remux 1080p Ukr/Eng | Sub Eng


Жанр: драма, жахи, трилер
Країна: США



Кінокомпанія: Blumhouse Productions, Safran Company, The, Temple Hill Entertainment
Режисер: Кевін Гетц, Майкл Гетц
Актори: Тройен Евері Беллісаріо, Кейтлін Кармайкл, Кейт Бертон, Бейлі Ноубл, Тобі Гасс, Лексі ДіБенедетто, Тейлор Джон Сміт, Діана Гоппер, Блейк Роббінс, Пітер Майкл Гец

Сюжет:
Через рік після свого зникнення, десятирічна Люсі несподівано знаходиться. Дівчинка така налякана, що не може ні з ким розмовляти і розповісти, що ж з нею сталося. Проходить 10 років. Люсі все ще продовжують переслідувати кошмари і вона не залишає спроб з'ясувати, що з нею тоді сталося. І коли вона, нарешті, разом зі своєю подругою, наближається впритул до розгадки таємниці, то потрапляє в нову паст...


Тривалість: 01:26:25
Якість: Remux 1080p
Відео:
кодек:
розмір кадру: 1920x1080
бітрейт: 26.7 Mб/с

Аудіо # 1:
мова: українська
переклад: професійний дубльований
кодек: -HD MA 5.1
бітрейт: 3253 кб/с

Аудіо # 2:
мова: українська
переклад: професійний дубльований
кодек: 5.1
бітрейт: 640 кб/с

Аудіо # 3:
мова: англійська
переклад: оригінал
кодек: TrueHD 5.1
бітрейт: 1237 кб/с

Субтитри:
мова: англійська
тип: пререндерні
формат: *.pgs
Info
General
Unique ID : 93344533950446824524690108915453444095 (0x463980D8CB177E182C746E00DB9EBFFF)
Complete name : G:\Майбутні релізи\Martyrs (2015) Remux 1080p [UKR_ENG] [Hurtom].
Format :
Format version : Version 4 / Version 2
File size : 19.3 GiB
Duration : 1 h 28 min
Overall bit rate mode : Variable
Overall bit rate : 31.3 Mb/s
Movie name : Martyrs (2015) Remux 1080p [UKR_ENG] [Hurtom]
Encoded date : UTC 2018-08-06 18:57:36
Writing application : v24.0.0 ('Beyond The Pale') 64-bit
Writing library : libebml v1.3.6 + v1.4.9
Cover : Yes
Attachments : cover.jpg

Video
ID : 1
Format : AVC
Format/Info : Advanced Video Codec
Format profile : [email protected]
Format settings : CABAC / 4 Ref Frames
Format settings, CABAC : Yes
Format settings, ReFrames : 4 frames
Codec ID : V_MPEG4/ISO/AVC
Duration : 1 h 26 min
Bit rate mode : Variable
Bit rate : 26.7 Mb/s
Maximum bit rate : 32.0 Mb/s
Width : 1 920 pixels
Height : 1 080 pixels
Display aspect ratio : 16:9
Frame rate mode : Constant
Frame rate : 23.976 (24000/1001) FPS
Color space : YUV
Chroma subsampling : 4:2:0
Bit depth : 8 bits
Scan type : Progressive
Bits/(Pixel*Frame) : 0.537
Stream size : 16.1 GiB (83%)
Default : Yes
Forced : No

Audio #1
ID : 2
Format :
Format/Info : Digital Theater Systems
Format profile : MA / Core
Codec ID : A_DTS
Duration : 1 h 28 min
Bit rate mode : Variable / Constant
Bit rate : 3 253 kb/s / 1 509 kb/s
Channel(s) : 6 channels
Channel positions : Front: L C R, Side: L R, LFE
Sampling rate : 48.0 kHz
Frame rate : 93.750 FPS (512 SPF)
Bit depth : 24 bits
Compression mode : Lossless / Lossy
Stream size : 2.01 GiB (10%)
Title : [UA- HD MA]
Language : Ukrainian
Default : Yes
Forced : Yes

Audio #2
ID : 3
Format : AC-3
Format/Info : Audio Coding 3
Codec ID : A_AC3
Duration : 1 h 28 min
Bit rate mode : Constant
Bit rate : 640 kb/s
Channel(s) : 6 channels
Channel positions : Front: L C R, Side: L R, LFE
Sampling rate : 48.0 kHz
Frame rate : 31.250 FPS (1536 SPF)
Bit depth : 16 bits
Compression mode : Lossy
Stream size : 405 MiB (2%)
Title : [UA-DUB-]
Language : Ukrainian
Service kind : Complete Main
Default : No
Forced : No

Audio #3
ID : 4
Format : TrueHD
Codec ID : A_TRUEHD
Duration : 1 h 28 min
Bit rate mode : Variable
Bit rate : 1 237 kb/s
Maximum bit rate : 3 774 kb/s
Channel(s) : 6 channels
Channel positions : Front: L C R, Side: L R, LFE
Sampling rate : 48.0 kHz
Frame rate : 1 200.000 FPS (40 SPF)
Compression mode : Lossless
Stream size : 783 MiB (4%)
Language : English
Default : No
Forced : No

Text
ID : 5
Format : PGS
Muxing mode : zlib
Codec ID : S_HDMV/PGS
Codec ID/Info : Picture based subtitle format used on BDs/HD-DVDs
Duration : 1 h 20 min
Bit rate : 13.8 kb/s
Count of elements : 1498
Stream size : 7.94 MiB (0%)
Language : English
Default : No
Forced : No
Скріншоти




Подяка пану AngryBirdsUA за доріжку та пану Hanway за синхронізацію.
За допомогу в створені реліза дякую пану 11FrYkT
Джерело: &
Особиста оцінка: 0 - не дивився


Золотий реліз (завантажене не впливає на рейтинг)
 Трекер:    Зареєстрований   

Завантажити / скачати фільм українською



відео для новачків



 Зареєстрований:   2018-08-06 22:20
 Розмір:   19.33 GB 
 Оцінка фільму:   6.7/10 (Голосів: 6)
   
Інші релізи
   Мучениці / Martyrs (2015) AVC Ukr/Eng | Sub Eng Sando7  0 / 1   1.68 GB   2019-10-20 11:19 
   Мучениці / Martyrs (2015) 720p Ukr/Eng | Su Eng 11FrYkT  2 / 0   5.05 GB   2018-08-03 17:02 
   Мучениці / Martyrs (2015) AngryBirdsUA  2 / 0   1.45 GB   2016-04-24 13:44 
Ваш часовий пояс: GMT + 2 Години

Нова тема   Відповісти