Бійцівський клуб / Fight Club (1999) Remux 1080p 2xUkr/Eng | Sub Ukr/Eng

Нові коментарі

Нова тема   Відповісти
Автор Повідомлення
staf777 
Відео Гуртом - підтримка та поширення
Відео Гуртом - підтримка та поширення


З нами з: 16.11.16
Востаннє: 21.04.19
Повідомлень: 2275

2018-08-06 18:37  
Бійцівський клуб / Fight Club (1999) Remux 1080p 2xUkr/Eng | Sub Ukr/Eng

Бійцівський клуб / Fight Club (1999) Remux 1080p 2xUkr/Eng | Sub Ukr/Eng


Жанр: драма, трилер, кримінал
Країна: США



Сюжет:
Джек, страждає хронічним безсонням і відчайдушно намагається вирватися з нудного життя. Саме тоді він зустрічає Тайлера Дердена, торговця із збоченою філософією. Тайлер впевнений, що самовдосконалення - доля слабких, а саморуйнування - єдине, заради чого варто жити. І ось вже Джек і Тайлер луплять один одному пики на стоянці перед баром, що приносить їм неабияке задоволення. Залучаючи інших чоловіків до простих радощів фізичної жорстокості, Джек і Тайлер засновують таємний Бійцівський Клуб, який має величезний успіх. Але Джека чекає шокуюче відкриття, здатне змінити все...


Тривалість: 02:19:08
Якість: Remux 1080p
Відео:
кодек:
розмір кадру: 1920x1080
бітрейт: 23.4 Mб/с

Аудіо # 1:
мова: українська
переклад: двоголосий закадровий
кодек: 2.0
бітрейт: 192 кб/с

Аудіо # 2:
мова: українська
переклад: двоголосий закадровий
кодек: 2.0
бітрейт: 192 кб/с

Аудіо # 3:
мова: англійська
переклад: оригінал
кодек: -HD MA 5.1
бітрейт: 3266 кб/с

Аудіо # 4:
мова: англійська
переклад: коментарі
кодек: 2.0
бітрейт: 224 кб/с

Аудіо # 5:
мова: англійська
переклад: коментарі
кодек: 2.0
бітрейт: 224 кб/с

Субтитри:
мова: українська
тип: пререндерні
формат: *.pgs

Субтитри:
мова: англійська
тип: пререндерні
формат: *.pgs
Info
General
Unique ID : 323724728875310084254468711879012904512 (0xF38B1D6A9BA9CD217379B1B18A49EE40)
Complete name : G:\Майбутні релізи\Fight Club (1999) Remux 1080p [2xUKR_ENG] [Hurtom].
Format :
Format version : Version 4 / Version 2
File size : 26.8 GiB
Duration : 2 h 19 min
Overall bit rate mode : Variable
Overall bit rate : 27.5 Mb/s
Movie name : Fight Club (1999) Remux 1080p [2xUKR_ENG] [Hurtom]
Encoded date : UTC 2018-08-06 14:40:11
Writing application : v24.0.0 ('Beyond The Pale') 64-bit
Writing library : libebml v1.3.6 + v1.4.9
Cover : Yes
Attachments : cover.jpg

Video
ID : 1
Format : AVC
Format/Info : Advanced Video Codec
Format profile : [email protected]
Format settings : CABAC / 4 Ref Frames
Format settings, CABAC : Yes
Format settings, ReFrames : 4 frames
Codec ID : V_MPEG4/ISO/AVC
Duration : 2 h 19 min
Bit rate mode : Variable
Bit rate : 23.4 Mb/s
Maximum bit rate : 35.0 Mb/s
Width : 1 920 pixels
Height : 1 080 pixels
Display aspect ratio : 16:9
Frame rate mode : Constant
Frame rate : 23.976 (24000/1001) FPS
Color space : YUV
Chroma subsampling : 4:2:0
Bit depth : 8 bits
Scan type : Progressive
Bits/(Pixel*Frame) : 0.471
Stream size : 22.7 GiB (85%)
Default : Yes
Forced : No
Color range : Limited
Color primaries : BT.709
Transfer characteristics : BT.709
Matrix coefficients : BT.709

Audio #1
ID : 2
Format : AC-3
Format/Info : Audio Coding 3
Codec ID : A_AC3
Duration : 2 h 19 min
Bit rate mode : Constant
Bit rate : 192 kb/s
Channel(s) : 2 channels
Channel positions : Front: L R
Sampling rate : 48.0 kHz
Frame rate : 31.250 FPS (1536 SPF)
Bit depth : 16 bits
Compression mode : Lossy
Stream size : 191 MiB (1%)
Title : 2+2
Language : Ukrainian
Service kind : Complete Main
Default : Yes
Forced : Yes

Audio #2
ID : 3
Format : AC-3
Format/Info : Audio Coding 3
Codec ID : A_AC3
Duration : 2 h 19 min
Bit rate mode : Constant
Bit rate : 192 kb/s
Channel(s) : 2 channels
Channel positions : Front: L R
Sampling rate : 48.0 kHz
Frame rate : 31.250 FPS (1536 SPF)
Bit depth : 16 bits
Compression mode : Lossy
Stream size : 191 MiB (1%)
Title : Новий канал
Language : Ukrainian
Service kind : Complete Main
Default : No
Forced : No

Audio #3
ID : 4
Format :
Format/Info : Digital Theater Systems
Format profile : MA / Core
Codec ID : A_DTS
Duration : 2 h 19 min
Bit rate mode : Variable / Constant
Bit rate : 3 266 kb/s / 1 509 kb/s
Channel(s) : 6 channels
Channel positions : Front: L C R, Side: L R, LFE
Sampling rate : 48.0 kHz
Frame rate : 93.750 FPS (512 SPF)
Bit depth : 24 bits
Compression mode : Lossless / Lossy
Stream size : 3.17 GiB (12%)
Language : English
Default : No
Forced : No

Audio #4
ID : 5
Format : AC-3
Format/Info : Audio Coding 3
Codec ID : A_AC3
Duration : 2 h 19 min
Bit rate mode : Constant
Bit rate : 224 kb/s
Channel(s) : 2 channels
Channel positions : Front: L R
Sampling rate : 48.0 kHz
Frame rate : 31.250 FPS (1536 SPF)
Bit depth : 16 bits
Compression mode : Lossy
Stream size : 223 MiB (1%)
Language : English
Service kind : Complete Main
Default : No
Forced : No

Audio #5
ID : 6
Format : AC-3
Format/Info : Audio Coding 3
Codec ID : A_AC3
Duration : 2 h 19 min
Bit rate mode : Constant
Bit rate : 224 kb/s
Channel(s) : 2 channels
Channel positions : Front: L R
Sampling rate : 48.0 kHz
Frame rate : 31.250 FPS (1536 SPF)
Bit depth : 16 bits
Compression mode : Lossy
Stream size : 223 MiB (1%)
Language : English
Service kind : Complete Main
Default : No
Forced : No

Text #1
ID : 7
Format : PGS
Muxing mode : zlib
Codec ID : S_HDMV/PGS
Codec ID/Info : Picture based subtitle format used on BDs/HD-DVDs
Duration : 2 h 17 min
Bit rate : 45.1 kb/s
Count of elements : 3668
Stream size : 44.2 MiB (0%)
Language : Ukrainian
Default : No
Forced : No

Text #2
ID : 8
Format : PGS
Muxing mode : zlib
Codec ID : S_HDMV/PGS
Codec ID/Info : Picture based subtitle format used on BDs/HD-DVDs
Duration : 2 h 17 min
Bit rate : 43.0 kb/s
Count of elements : 3614
Stream size : 42.2 MiB (0%)
Language : English
Default : No
Forced : No
Скріншоти



Вдячний urij546724 та karvai0 за українські звукові доріжки
Джерело: &
Особиста оцінка: 0 - не дивився


Золотий реліз (завантажене не впливає на рейтинг)
 Трекер:    Зареєстрований   

Завантажити / скачати фільм українською



відео для новачків



 Зареєстрований:   2018-08-06 18:37
 Розмір:   26.75 GB 
 Оцінка фільму:   9/10 (Голосів: 12)
   
[email protected] 
VIP


З нами з: 25.03.17
Востаннє: 20.04.19
Повідомлень: 292

2019-01-07 15:10  
Можливо фільм є непоганий, але я таких стрічок не схвалюю. Моя оцінка 4 з 10
Kryptonec 
Новенький


З нами з: 30.10.11
Востаннє: 19.04.19
Повідомлень: 20

2019-04-17 14:32  
Дякую за роздачу! Чудова класика кінематографу з неординарною розв'язкою. Супер!
Ваш часовий пояс: GMT + 2 Години

Нова тема   Відповісти