2Pac: Легенда / All Eyez on Me (2017) 1080p Ukr/Eng | Sub Eng

Нові коментарі

Нова тема   Відповісти
Автор Повідомлення
staf777 
Попереджень: 1
Попереджень: 1 


З нами з: 16.11.16
Востаннє: 10.12.18
Повідомлень: 1890

2018-08-06 15:28  
2Pac: Легенда / All Eyez on Me (2017) 1080p Ukr/Eng | Sub Eng



«Перший фиільм про Тупака Шакура»



Жанр: драма, біографічний, музичний
Країна: США



Кінокомпанія: Code Black Entertainment, Morgan Creek Productions, Program Pictures, Voltage Pictures
Режисер: Бенні Бум
Актори: Деметріус Шипп мол., Данай Джекесай Гуріра, Катерина Грехем, Енні Ілонзе, Домінік Сантана, Джамал Вулард, Кіт Робінсон, Лорен Коен

Сюжет:
Події кінострічки розпочинаються у 1995 році, коли у велику нью-йоркську в'язницю приходять журналісти. Привід - скандальний репер 2pac, який загримів за ґрати через звинувачення у зґвалтуванні. Артист розповідає їм про своє дитинство, про переїзд до Каліфорнії, про початок кар'єри та інші знакові моменти своєї біографії. Але все найважливіше відбудеться вже після того, як хлопця випустять на свободу…


Тривалість: 02:19:37
Якість: 1080p

Відео:
кодек:
розмір кадру: 1920x800
бітрейт: 9579 кб/с

Аудіо # 1:
мова: українська
переклад: професійний дубльований
кодек: 2.0
бітрейт: 192 кб/с

Аудіо # 2:
мова: англійська
переклад: оригінал
кодек: 5.1
бітрейт: 1509 кб/с

Субтитри:
мова: англійська
тип: програмні (м'які)
формат: *.srt
Info
Код:
General
Unique ID                   : 229840608104816179156093686702290148059 (0xACE9B0E2A866396C94EF0B0B4CFE9ADB)
Complete name               : D:\All Eyez on Me (2017) 1080p [UKR_ENG] [Hurtom].
Format                      :
Format version              : Version 4 / Version 2
File size                   : 11.0 GiB
Duration                    : 2 h 19 min
Overall bit rate            : 11.3 Mb/s
Movie name                  :  /  All Eyez on Me (2017) 1080p [UKR_ENG] [Hurtom]
Encoded date                : UTC 2018-08-25 15:37:10
Writing application         : v24.0.0 ('Beyond The Pale') 64-bit
Writing library             : libebml v1.3.6 + v1.4.9
Cover                       : Yes
Attachments                 : cover.jpg

Video
ID                          : 1
Format                      : AVC
Format/Info                 : Advanced Video Codec
Format profile              : [email protected]
Format settings             : CABAC / 5 Ref Frames
Format settings, CABAC      : Yes
Format settings, ReFrames   : 5 frames
Codec ID                    : V_MPEG4/ISO/AVC
Duration                    : 2 h 19 min
Bit rate                    : 9 579 kb/s
Width                       : 1 920 pixels
Height                      : 800 pixels
Display aspect ratio        : 2.40:1
Frame rate mode             : Constant
Frame rate                  : 23.976 FPS
Color space                 : YUV
Chroma subsampling          : 4:2:0
Bit depth                   : 8 bits
Scan type                   : Progressive
Bits/(Pixel*Frame)          : 0.260
Stream size                 : 9.34 GiB (85%)
Title                       : All Eyez on Me (2017)
Writing library             : core 130 r2273 b3065e6
Encoding settings           : cabac=1 / ref=5 / deblock=1:-3:-3 / analyse=0x3:0x133 / me=umh / subme=11 / psy=1 / psy_rd=1.00:0.10 / mixed_ref=1 / me_range=32 / chroma_me=1 / trellis=2 / 8x8dct=1 / cqm=0 / deadzone=21,11 / fast_pskip=1 / chroma_qp_offset=-3 / threads=6 / lookahead_threads=1 / sliced_threads=0 / nr=0 / decimate=1 / interlaced=0 / bluray_compat=0 / constrained_intra=0 / bframes=16 / b_pyramid=2 / b_adapt=2 / b_bias=0 / direct=3 / weightb=1 / open_gop=0 / weightp=2 / keyint=250 / keyint_min=23 / scenecut=40 / intra_refresh=0 / rc_lookahead=60 / rc=2pass / mbtree=1 / bitrate=9579 / ratetol=1.0 / qcomp=0.60 / qpmin=0 / qpmax=69 / qpstep=4 / cplxblur=20.0 / qblur=0.5 / ip_ratio=1.40 / aq=1:1.00
Language                    : English
Default                     : Yes
Forced                      : No

Audio #1
ID                          : 2
Format                      : AC-3
Format/Info                 : Audio Coding 3
Codec ID                    : A_AC3
Duration                    : 2 h 19 min
Bit rate mode               : Constant
Bit rate                    : 192 kb/s
Channel(s)                  : 2 channels
Channel positions           : Front: L R
Sampling rate               : 48.0 kHz
Frame rate                  : 31.250 FPS (1536 SPF)
Bit depth                   : 16 bits
Compression mode            : Lossy
Stream size                 : 192 MiB (2%)
Language                    : Ukrainian
Service kind                : Complete Main
Default                     : Yes
Forced                      : Yes

Audio #2
ID                          : 3
Format                      :
Format/Info                 : Digital Theater Systems
Codec ID                    : A_DTS
Duration                    : 2 h 19 min
Bit rate mode               : Constant
Bit rate                    : 1 509 kb/s
Channel(s)                  : 6 channels
Channel positions           : Front: L C R, Side: L R, LFE
Sampling rate               : 48.0 kHz
Frame rate                  : 93.750 FPS (512 SPF)
Bit depth                   : 24 bits
Compression mode            : Lossy
Stream size                 : 1.47 GiB (13%)
Title                       : , 6 ch, 1509 Kbps, Original
Language                    : English
Default                     : No
Forced                      : No

Text
ID                          : 4
Format                      : UTF-8
Codec ID                    : S_TEXT/UTF8
Codec ID/Info               : UTF-8 Plain Text
Duration                    : 2 h 19 min
Bit rate                    : 92 b/s
Count of elements           : 2898
Stream size                 : 94.5 KiB (0%)
Language                    : English
Default                     : No
Forced                      : No

Menu
00:00:00.000                : en:Chapter 01
00:08:11.240                : en:Chapter 02
00:18:13.258                : en:Chapter 03
00:26:49.899                : en:Chapter 04
00:35:10.691                : en:Chapter 05
00:44:50.104                : en:Chapter 06
00:52:41.533                : en:Chapter 07
01:01:27.934                : en:Chapter 08
01:09:20.489                : en:Chapter 09
01:19:04.656                : en:Chapter 10
01:27:41.547                : en:Chapter 11
01:35:07.410                : en:Chapter 12
01:44:51.952                : en:Chapter 13
01:52:30.994                : en:Chapter 14
02:03:28.484                : en:Chapter 15
02:14:28.977                : en:Chapter 16
Скріншоти




Подяка пану sergiyko.5 за доріжку.
За допомогу в створені реліза дякую пану 11FrYkT
Джерело: &
Особиста оцінка: 0 - не дивився


 Трекер:    Зареєстрований   

Завантажити / скачати фільм українською



відео для новачків



 Зареєстрований:   2018-08-25 18:11
 Розмір:   11 GB 
 Оцінка фільму:   7.5/10 (Голосів: 8)
   
Інші релізи
   2Pac: Легенда / All Eyez on Me (2017) Remux 1080p Ukr/Eng | Sub Eng staf777  1 / 0   23.12 GB   2018-08-25 18:40 
   2Pac: Легенда / All Eyez on Me (2017) AVC Ukr/Eng | Sub Eng 11FrYkT  9 / 0   2.65 GB   2018-08-05 21:22 
   2Pac: Легенда / All Eyez on Me (2017) 720p Ukr/Eng | Sub Eng sergiyko.5  4 / 0   5.72 GB   2018-08-05 21:04 
   2Pac: Легенда / All Eyez on Me (2017) sergiyko.5  4 / 0   1.93 GB   2018-08-05 19:59 
bot 
робот


З нами з: 30.09.07
Востаннє: 26.05.05
Повідомлень: 20326

2018-08-06 16:19  
Тему перенесено з Анонси релізів до форуму Фільми в HD


staf777

maSSacre 
Новенький


З нами з: 05.05.11
Востаннє: 09.12.18
Повідомлень: 22

2018-08-12 13:47  
На 1:01:53 видає прямо у фільмі чорний екран з надписом "Copy detected (or a rip tool is running if you are trying to watch this movie on your PC)." При цьому звукова доріжка відігрує як має бути. Приблизно через хвилину картинка знову з'являється але не відповідає подіям у звуковій доріжці.
zvb 
Новенький


З нами з: 31.05.09
Востаннє: 09.12.18
Повідомлень: 10

2018-08-25 14:12  
це лайно після 60 хвилин!!!!
staf777 
Попереджень: 1
Попереджень: 1 


З нами з: 16.11.16
Востаннє: 10.12.18
Повідомлень: 1890

2018-08-25 18:11  
Замінив відеоряд та виправив розсіхрон 
Wensun 
Свій


З нами з: 20.01.09
Востаннє: 09.12.18
Повідомлень: 117

2018-08-26 00:16  
але то !! я якрас скачав а ти виправив !!!

Додано через 2 години 8 хвилин 44 секунди:

той хто пише лайно, Біопіків не дивився... а шо ви хотіли побачити ? блокбастер ? це ХУДОЖНІЙ !!!! ФІЛЬМ !!! не документальний !. 9/10. файно

gesko 
Новенький


З нами з: 16.02.17
Востаннє: 08.12.18
Повідомлень: 12

2018-08-26 07:40  
Крутий, дуже автентичний фільм з край заниженим рейтингом. Рекомендую всім!
Ваш часовий пояс: GMT + 2 Години

Нова тема   Відповісти