Чорна Пантера / Black Panther (2018) mini 720p (60 fps)

Нові коментарі

Нова тема   Відповісти
Автор Повідомлення
Drool 
VIP


З нами з: 17.04.10
Востаннє: 16.12.18
Повідомлень: 1502

2018-08-06 07:47  
Чорна Пантера / Black Panther (2018) mini 720p (60 fps)

Жанр: бойовик, пригоди, фантастика
Країна: США


Діти до 13 років допускаються на фільм тільки з батьками
Настійне застереження батькам. Деякий матеріал може бути невідповідним для дітей до 13 років. Цей рейтинг показує, що оцінений фільм може бути невідповідним для дітей. Батьки повинні бути особливо обережні, дозволяючи своїм маленьким дітям перегляд. Грубе або тривале насильство відсутнє; сексуальна орієнтація на наготу відсутня; деякі сцени вживання наркотиків можуть бути присутніми; можна почути одиничні вживання грубої сексуальної лексики. Присутня епізодична оголеність (не враховуючи репродуктивні органи). Присутні сексуальні натяки і натяки на гомосексуалізм чи сексуальні збочення.
Кінокомпанія: Marvel Studios, Walt Disney Pictures
Режисер: Райан Куглер
Актори: Чедвік Боузман, Майкл Б. Джордан, Люпіта Ніонго, Данай Джекесай Гуріра, Мартін Фріман, Деніел Калуя, Летішіа Райт, Вінстон Д'юк, Стерлінг К. Браун, Анджела Бассетт

Сюжет:
З першого погляду можна вирішити, що Ваканда - звичайна територія дикої Африки, але це не так. Тут, в надрах пустельних земель, ховаються поклади унікального металу, здатного поглинати вібрацію. Багато хто намагався дістатися до нього, плюндруючи все на своєму шляху і приносячи смерть аборигенам, але кожен раз таємничий дух савани - Чорна Пантера - вставав на захист пригноблених. Багато років потому біда знову приходить в Ваканду, і цього разу ворог заручився підтримкою сучасних технологій. Коли шансів майже не залишається, Т`Чалла, молодий принц Ваканди, дізнається, що саме йому належить відродити легенду і продовжити вічну боротьбу, надівши маску Чорної Пантери.


Тривалість: 02:14:33
Якість: 720p-mini
Відео:
кодек:
розмір кадру: 1280x536
бітрейт: 5800 кб/с
кадрів на секунду: 60.000 к/с

Аудіо:
мова: українська
переклад: професійний дубльований
кодек: 5.1
бітрейт: 448 кб/с

Субтитри (форсовані):
мова: українська
тип: програмні (м'які)
формат: *.srt
Info
Код:
General
Unique ID                                : 164301773851736993295582194371222948755 (0x7B9B5EE0CD34D4D334D5BF37F5D5CB93)
Complete name                            : /mnt/disk_d/Video/Black.Panther.2018.Ukr.Dub..720p-mini.60fps.
Format                                   :
Format version                           : Version 4 / Version 2
File size                                : 5.88 GiB
Duration                                 : 2 h 14 min
Overall bit rate                         : 6 252 kb/s
Movie name                               : Чорна Пантера / Black Panther (2018) 720p-mini (60 fps) | NNNB
Encoded date                             : UTC 2018-08-28 12:08:08
Writing application                      : v14.0.0 ('Flow') 64bit
Writing library                          : libebml v1.3.4 + v1.4.7
Cover                                    : Yes
Attachments                              : cover.png

Video
ID                                       : 1
Format                                   : AVC
Format/Info                              : Advanced Video Codec
Format profile                           : [email protected]
Format settings                          : CABAC / 9 Ref Frames
Format settings, CABAC                   : Yes
Format settings, RefFrames               : 9 frames
Codec ID                                 : V_MPEG4/ISO/AVC
Duration                                 : 2 h 14 min
Bit rate                                 : 5 800 kb/s
Width                                    : 1 280 pixels
Height                                   : 536 pixels
Display aspect ratio                     : 2.40:1
Frame rate mode                          : Constant
Frame rate                               : 60.000 FPS
Color space                              : YUV
Chroma subsampling                       : 4:2:0
Bit depth                                : 8 bits
Scan type                                : Progressive
Bits/(Pixel*Frame)                       : 0.141
Stream size                              : 5.45 GiB (93%)
Title                                    : Чорна Пантера / Black Panther (2018) 720p-mini (60 fps) | NNNB
Writing library                          : core 155 r2901 7d0ff22
Encoding settings                        : cabac=1 / ref=9 / deblock=1:0:0 / analyse=0x3:0x113 / me=umh / subme=11 / psy=1 / psy_rd=1.00:0.09 / mixed_ref=1 / me_range=24 / chroma_me=1 / trellis=2 / 8x8dct=1 / cqm=0 / deadzone=21,11 / fast_pskip=0 / chroma_qp_offset=-3 / threads=17 / lookahead_threads=2 / sliced_threads=0 / nr=0 / decimate=0 / interlaced=0 / bluray_compat=0 / constrained_intra=0 / bframes=9 / b_pyramid=2 / b_adapt=2 / b_bias=0 / direct=3 / weightb=1 / open_gop=0 / weightp=2 / keyint=250 / keyint_min=25 / scenecut=40 / intra_refresh=0 / rc=2pass / mbtree=0 / bitrate=5800 / ratetol=1.0 / qcomp=0.60 / qpmin=0 / qpmax=69 / qpstep=4 / cplxblur=20.0 / qblur=0.5 / ip_ratio=1.40 / pb_ratio=1.30 / aq=1:1.00
Default                                  : Yes
Forced                                   : Yes

Audio
ID                                       : 2
Format                                   : AC-3
Format/Info                              : Audio Coding 3
Format settings, Endianness              : Big
Codec ID                                 : A_AC3
Duration                                 : 2 h 14 min
Bit rate mode                            : Constant
Bit rate                                 : 448 kb/s
Channel(s)                               : 6 channels
Channel positions                        : Front: L C R, Side: L R, LFE
Sampling rate                            : 48.0 kHz
Frame rate                               : 31.250 FPS (1536 SPF)
Bit depth                                : 16 bits
Compression mode                         : Lossy
Stream size                              : 431 MiB (7%)
Title                                    : 5.1 @ 448 kbps
Language                                 : Ukrainian
Service kind                             : Complete Main
Default                                  : Yes
Forced                                   : Yes

Text
ID                                       : 3
Format                                   : UTF-8
Codec ID                                 : S_TEXT/UTF8
Codec ID/Info                            : UTF-8 Plain Text
Duration                                 : 2 h 12 min
Bit rate                                 : 2 b/s
Count of elements                        : 77
Stream size                              : 2.23 KiB (0%)
Title                                    : Forced
Language                                 : Ukrainian
Default                                  : Yes
Forced                                   : Yes
Скріншоти
Джерело відеоряду:
Форсовані субтитри та звукову доріжку взято з релізу AVC.
Особиста оцінка: 8 - мені сподобалося


 Трекер:    Зареєстрований   

Завантажити / скачати фільм українською



відео для новачків



 Зареєстрований:   2018-08-28 14:55
 Розмір:   5.88 GB 
 Оцінка фільму:   7.9/10 (Голосів: 9)
   
Інші релізи
   Чорна Пантера / Black Panther (2018) 1080p Ukr/Eng | Sub Eng staf777  14 / 1   15.87 GB   2018-08-28 15:57 
   Чорна Пантера / Black Panther (2018) igor911  22 / 1   2.18 GB   2018-08-28 13:08 
   Чорна Пантера / Black Panther (2018) Ukr/Eng | Sub Eng igor911  11 / 1   2.91 GB   2018-08-28 11:06 
   Чорна Пантера / Black Panther (2018) Remux 1080p Ukr/Eng | Sub Eng 11FrYkT  9 / 0   32.54 GB   2018-08-28 06:13 
   Чорна Пантера / Black Panther (2018) AVC 11FrYkT  27 / 0   1.69 GB   2018-08-28 06:11 
   Чорна Пантера / Black Panther (2018) 720p Ukr/Eng | Sub Eng 11FrYkT  15 / 0   7.14 GB   2018-08-28 06:11 
   Чорна Пантера / Black Panther (2018) AVC Ukr/Eng | Sub Eng uafilm.tv  45 / 0   2.42 GB   2018-06-19 19:05 
GliBond 
Частий відвідувач


З нами з: 06.10.16
Востаннє: 16.12.18
Повідомлень: 38

2018-08-06 22:42  
60 fps — круто! Для тих у кого комп не тягне svp, саме те. Реліз гарний.
Drool 
VIP


З нами з: 17.04.10
Востаннє: 16.12.18
Повідомлень: 1502

2018-08-28 14:55  
Оновлено звукову доріжку на 5.1 448 kbps!
Ваш часовий пояс: GMT + 2 Години

Нова тема   Відповісти