Клуб молодих мільярдерів / Billionaire Boys Club (2018) 1080i Ukr/Eng | Sub Eng

Нові коментарі

Нова тема   Відповісти
Автор Повідомлення
staf777 
Попереджень: 1
Попереджень: 1 


З нами з: 16.11.16
Востаннє: 21.02.19
Повідомлень: 2151

2018-08-05 21:56  
Клуб молодих мільярдерів / Billionaire Boys Club (2018) 1080i Ukr/Eng | Sub Eng




Жанр: біографія, драма, трилер
Країна: США



Кінокомпанія: Armory Films, Oriah Entertainment, Tibet Born Pictures Limited
Режисер: Джеймс Кокс
Ролі озвучують: Енсел Елґорт, Тарон Еджертон, Ема Робертс, Кевін Спейсі, Джеремі Ірвін, С'юкі Вотерхаус, Кері Елвіс, Джадд Нельсон, Бокім Вудбайн, Томас Кокерел та інші

Сюжет:
Події розгортаються у 80-х роках минулого століття. Джо Хант разом зі своїми друзями – сини впливових і заможних батьків. Хант і Карні вирішують заробити великі гроші та організовують фінансову піраміду. Спершу справи йдуть в гору. Охочих вступити до заснованого ними Клубу багато, тож гроші течуть до них потужним потоком. Юнаки насолоджуються своїм успіхом і купаються у розкоші. Та система, хоч і працює успішно, приречена на невдачу. І рано чи пізно це станеться.


Тривалість: 01:43:51
Якість: 1080i
Відео:
кодек:
розмір кадру: 1920x804
бітрейт: 9414 кб/с

Аудіо:
мова: українська
переклад: професійний дубльований | студія AAA-Sound
кодек: 2.0
бітрейт: 192 кб/с

Аудіо # 2:
мова: англійська
переклад: оригінал
кодек: 5.1
бітрейт: 2048 кб/с

Субтитри:
мова: англійська
тип: програмні (м'які)
формат: *.srt
Info
Код:

General
Unique ID                   : 174232159636269399699250818839756572824 (0x8313E4B2B55E39BF0EF019C83D168898)
Complete name               : H:\» HD українською » Фільми в HD\Трилер\Billionaire Boys Club (2018) 1080p [UKR_ENG] [Hurtom].
Format                      :
Format version              : Version 4 / Version 2
File size                   : 8.46 GiB
Duration                    : 1 h 43 min
Overall bit rate            : 11.7 Mb/s
Movie name                  : Billionaire Boys Club (2018) 1080p [UKR_ENG] [Hurtom]
Encoded date                : UTC 2018-12-22 14:14:54
Writing application         : v24.0.0 ('Beyond The Pale') 64-bit
Writing library             : libebml v1.3.6 + v1.4.9 / Lavf57.71.100
Cover                       : Yes
Attachments                 : cover
ENCODING_INFO               : ,WEBM > Пользовательский / H264 > CBR 10000kbps HQ / > CBR 384kbps / > CBR 192kbps / -HD HRA > CBR 2046kbps

Video
ID                          : 1
Format                      : AVC
Format/Info                 : Advanced Video Codec
Format profile              : [email protected]
Format settings             : CABAC / 4 Ref Frames
Format settings, CABAC      : Yes
Format settings, ReFrames   : 4 frames
Codec ID                    : V_MPEG4/ISO/AVC
Duration                    : 1 h 43 min
Bit rate                    : 9 414 kb/s
Nominal bit rate            : 10 000 kb/s
Width                       : 1 920 pixels
Height                      : 804 pixels
Display aspect ratio        : 2.40:1
Frame rate mode             : Constant
Frame rate                  : 25.000 FPS
Color space                 : YUV
Chroma subsampling          : 4:2:0
Bit depth                   : 8 bits
Scan type                   : MBAFF
Scan type, store method     : Interleaved fields
Scan order                  : Bottom Field First
Bits/(Pixel*Frame)          : 0.244
Stream size                 : 6.83 GiB (81%)
Writing library             : core 155 r2901M 7d0ff22
Encoding settings           : cabac=1 / ref=3 / deblock=1:-2:-2 / analyse=0x3:0x113 / me=hex / subme=7 / psy=1 / psy_rd=1.00:0.20 / mixed_ref=1 / me_range=16 / chroma_me=1 / trellis=1 / 8x8dct=1 / cqm=0 / deadzone=21,11 / fast_pskip=1 / chroma_qp_offset=-3 / threads=5 / lookahead_threads=1 / sliced_threads=0 / nr=0 / decimate=1 / interlaced=bff / bluray_compat=0 / constrained_intra=0 / bframes=3 / b_pyramid=2 / b_adapt=2 / b_bias=0 / direct=3 / weightb=1 / open_gop=0 / weightp=0 / keyint=250 / keyint_min=25 / scenecut=40 / intra_refresh=0 / rc_lookahead=40 / rc=cbr / mbtree=1 / bitrate=10000 / ratetol=1.0 / qcomp=0.60 / qpmin=0 / qpmax=69 / qpstep=4 / vbv_maxrate=10000 / vbv_bufsize=7142 / nal_hrd=none / filler=0 / ip_ratio=1.40 / aq=1:1.00
Language                    : English
Default                     : Yes
Forced                      : No
Color range                 : Limited
Color primaries             : BT.709
Transfer characteristics    : BT.709
Matrix coefficients         : BT.709

Audio #1
ID                          : 2
Format                      : AC-3
Format/Info                 : Audio Coding 3
Codec ID                    : A_AC3
Duration                    : 1 h 43 min
Bit rate mode               : Constant
Bit rate                    : 192 kb/s
Channel(s)                  : 2 channels
Channel positions           : Front: L R
Sampling rate               : 48.0 kHz
Frame rate                  : 31.250 FPS (1536 SPF)
Bit depth                   : 16 bits
Compression mode            : Lossy
Stream size                 : 143 MiB (2%)
Title                       : 2.0 @ 192 kbps
Language                    : Ukrainian
Service kind                : Complete Main
Default                     : Yes
Forced                      : Yes

Audio #2
ID                          : 3
Format                      :
Format/Info                 : Digital Theater Systems
Codec ID                    : A_DTS
Duration                    : 1 h 43 min
Bit rate mode               : Constant
Bit rate                    : 2 048 kb/s
Channel(s)                  : 6 channels
Channel positions           : Front: L C R, Side: L R, LFE
Sampling rate               : 48.0 kHz
Frame rate                  : 93.750 FPS (512 SPF)
Bit depth                   : 16 bits
Compression mode            : Lossy
Stream size                 : 1.48 GiB (18%)
Language                    : English
Default                     : No
Forced                      : No

Text
ID                          : 4
Format                      : UTF-8
Codec ID                    : S_TEXT/UTF8
Codec ID/Info               : UTF-8 Plain Text
Duration                    : 1 h 31 min
Bit rate                    : 84 b/s
Count of elements           : 1732
Stream size                 : 56.6 KiB (0%)
Language                    : English
Default                     : No
Forced                      : No

Menu
00:00:00.000                : :00:00:00.000
00:04:51.080                : :00:04:51.080
00:13:48.760                : :00:13:48.760
00:23:02.400                : :00:23:02.400
00:28:31.800                : :00:28:31.800
00:34:13.960                : :00:34:13.960
00:42:05.760                : :00:42:05.760
00:49:09.680                : :00:49:09.680
00:55:00.000                : :00:55:00.000
01:02:40.320                : :01:02:40.320
01:10:45.560                : :01:10:45.560
01:17:18.720                : :01:17:18.720
01:23:53.760                : :01:23:53.760
01:33:08.080                : :01:33:08.080






Джерело: &
Особиста оцінка: 0 - не дивився


 Трекер:    Зареєстрований   

Завантажити / скачати фільм українською



відео для новачків



 Зареєстрований:   2018-12-22 17:12
 Розмір:   8.46 GB 
 Оцінка фільму:   8/10 (Голосів: 20)
   
bot 
робот


З нами з: 30.09.07
Востаннє: 26.05.05
Повідомлень: 20713

2018-08-05 22:19  
Тему перенесено з Анонси релізів до форуму Фільми в HD


staf777

0mage0 
VIP


З нами з: 06.10.15
Востаннє: 23.02.19
Повідомлень: 435

2018-08-13 07:26  
Фільм такий собі. Історія подана якось сумбурно. Хоча факти начебто збігаються більш-менш з тим, що було в реальності. Ще одна фішка всіх фільмів про торговців акціями або повітрям - коли вони спілкуються з потенційними інвесторами, переконуючи їх вкласти гроші, поводяться як ті торгові агенти, що ходять по квартирах або пристають до людей на вулиці, просять щось купити і розповідають який цей товар найкращий, дуже агресивно і цілком зрозуміло, що вони у відчаї. Не знаю, чи це специфіка фільмів, чи дійсно вони такими промовами когось переконали вкласти гроші, але для мене ці промови звучать як "чуваки, ми в повній дупі і нам потрібні гроші, подайте заради Христа".
І не зовсім зрозуміло як фейковий банківський рахунок допоміг цьому Левіну отримати кредит чи щось таке.

staf777 
Попереджень: 1
Попереджень: 1 


З нами з: 16.11.16
Востаннє: 21.02.19
Повідомлень: 2151

2018-12-22 17:12  
Оновив відеоряд на 1080p
11FrYkT 
Модератор відео


З нами з: 20.02.11
Востаннє: 23.02.19
Повідомлень: 5608

2018-12-23 13:36  
staf777 написано:
Оновив відеоряд на 1080p

давно є якісне відео, сенс було викладати це?

staf777 
Попереджень: 1
Попереджень: 1 


З нами з: 16.11.16
Востаннє: 21.02.19
Повідомлень: 2151

2019-01-10 20:27  
Оновлю завтра - нема часу
Ваш часовий пояс: GMT + 2 Години

Нова тема   Відповісти