Клуб молодих мільярдерів / Billionaire Boys Club (2018) 1080p Ukr/Eng | Sub En

Нові коментарі

Нова тема   Відповісти
Автор Повідомлення
staf777 
Попереджень: 1
Попереджень: 1 


З нами з: 16.11.16
Востаннє: 16.10.18
Повідомлень: 1632

2018-08-05 22:56  
Клуб молодих мільярдерів / Billionaire Boys Club (2018) 1080p Ukr/Eng | Sub Eng




Жанр: біографія, драма, трилер
Країна: США



Кінокомпанія: Armory Films, Oriah Entertainment, Tibet Born Pictures Limited
Режисер: Джеймс Кокс
Ролі озвучують: Енсел Елґорт, Тарон Еджертон, Ема Робертс, Кевін Спейсі, Джеремі Ірвін, С'юкі Вотерхаус, Кері Елвіс, Джадд Нельсон, Бокім Вудбайн, Томас Кокерел та інші

Сюжет:
Події розгортаються у 80-х роках минулого століття. Джо Хант разом зі своїми друзями – сини впливових і заможних батьків. Хант і Карні вирішують заробити великі гроші та організовують фінансову піраміду. Спершу справи йдуть в гору. Охочих вступити до заснованого ними Клубу багато, тож гроші течуть до них потужним потоком. Юнаки насолоджуються своїм успіхом і купаються у розкоші. Та система, хоч і працює успішно, приречена на невдачу. І рано чи пізно це станеться.


Тривалість: 01:48:19
Якість: 1080p
Відео:
кодек:
розмір кадру: 1920x800
бітрейт: 5710 кб/с

Аудіо:
мова: українська
переклад: професійний дубльований | студія AAA-Sound
кодек: 2.0
бітрейт: 192 кб/с

Аудіо # 2:
мова: англійська
переклад: оригінал
кодек: EAC3 5.1
бітрейт: 640 кб/с

Субтитри:
мова: англійська
тип: програмні (м'які)
формат: *.srt
Info
Код:

General
Unique ID                   : 68884663558328468926580209549756363446 (0x33D2B420CEB75DAE9D9ABAC11CBC72B6)
Complete name               : G:\Драма\Billionaire Boys Club (2018) 1080p [AMZN] [UKR_ENG] [Hurtom].
Format                      :
Format version              : Version 4 / Version 2
File size                   : 4.95 GiB
Duration                    : 1 h 48 min
Overall bit rate            : 6 545 kb/s
Movie name                  : Billionaire Boys Club (2018) 1080p [AMZN] [UKR_ENG] [Hurtom]
Encoded date                : UTC 2018-08-05 20:05:06
Writing application         : v24.0.0 ('Beyond The Pale') 64-bit
Writing library             : libebml v1.3.6 + v1.4.9
Cover                       : Yes
Attachments                 : cover.jpg

Video
ID                          : 1
Format                      : AVC
Format/Info                 : Advanced Video Codec
Format profile              : [email protected]
Format settings             : CABAC / 4 Ref Frames
Format settings, CABAC      : Yes
Format settings, ReFrames   : 4 frames
Codec ID                    : V_MPEG4/ISO/AVC
Duration                    : 1 h 48 min
Bit rate                    : 5 710 kb/s
Width                       : 1 920 pixels
Height                      : 800 pixels
Display aspect ratio        : 2.40:1
Frame rate mode             : Constant
Frame rate                  : 23.976 (24000/1001) FPS
Color space                 : YUV
Chroma subsampling          : 4:2:0
Bit depth                   : 8 bits
Scan type                   : Progressive
Bits/(Pixel*Frame)          : 0.155
Stream size                 : 4.32 GiB (87%)
Default                     : Yes
Forced                      : No
Color range                 : Limited
Color primaries             : BT.709
Transfer characteristics    : BT.709
Matrix coefficients         : BT.709

Audio #1
ID                          : 2
Format                      : AC-3
Format/Info                 : Audio Coding 3
Codec ID                    : A_AC3
Duration                    : 1 h 48 min
Bit rate mode               : Constant
Bit rate                    : 192 kb/s
Channel(s)                  : 2 channels
Channel positions           : Front: L R
Sampling rate               : 48.0 kHz
Frame rate                  : 31.250 FPS (1536 SPF)
Bit depth                   : 16 bits
Compression mode            : Lossy
Stream size                 : 149 MiB (3%)
Title                       : [UA-DUB- AAA-Sound]
Language                    : Ukrainian
Service kind                : Complete Main
Default                     : Yes
Forced                      : Yes

Audio #2
ID                          : 3
Format                      : E-AC-3
Format/Info                 : Enhanced Audio Coding 3
Codec ID                    : A_EAC3
Duration                    : 1 h 48 min
Bit rate mode               : Constant
Bit rate                    : 640 kb/s
Channel(s)                  : 6 channels
Channel positions           : Front: L C R, Side: L R, LFE
Sampling rate               : 48.0 kHz
Frame rate                  : 187.500 FPS (256 SPF)
Compression mode            : Lossy
Stream size                 : 496 MiB (10%)
Language                    : English
Service kind                : Complete Main
Default                     : No
Forced                      : No

Text
ID                          : 4
Format                      : UTF-8
Codec ID                    : S_TEXT/UTF8
Codec ID/Info               : UTF-8 Plain Text
Duration                    : 1 h 35 min
Bit rate                    : 80 b/s
Count of elements           : 1732
Stream size                 : 56.6 KiB (0%)
Title                       : SDH
Language                    : English
Default                     : No
Forced                      : No





Подяка пану Hanway за синхронізацію.
За допомогу в створені реліза дякую пану 11FrYkT
Джерело: &
Особиста оцінка: 0 - не дивився


 Трекер:    Зареєстрований   

Завантажити / скачати фільм українською



відео для новачків



 Зареєстрований:   2018-08-05 23:20
 Розмір:   4.95 GB 
 Оцінка фільму:   8.5/10 (Голосів: 15)
   
bot 
робот


З нами з: 30.09.07
Востаннє: 26.05.05
Повідомлень: 19956

2018-08-05 23:19  
Тему перенесено з Анонси релізів до форуму Фільми в HD


staf777

0mage0 
VIP


З нами з: 06.10.15
Востаннє: 17.10.18
Повідомлень: 366

2018-08-13 08:26  
Фільм такий собі. Історія подана якось сумбурно. Хоча факти начебто збігаються більш-менш з тим, що було в реальності. Ще одна фішка всіх фільмів про торговців акціями або повітрям - коли вони спілкуються з потенційними інвесторами, переконуючи їх вкласти гроші, поводяться як ті торгові агенти, що ходять по квартирах або пристають до людей на вулиці, просять щось купити і розповідають який цей товар найкращий, дуже агресивно і цілком зрозуміло, що вони у відчаї. Не знаю, чи це специфіка фільмів, чи дійсно вони такими промовами когось переконали вкласти гроші, але для мене ці промови звучать як "чуваки, ми в повній дупі і нам потрібні гроші, подайте заради Христа".
І не зовсім зрозуміло як фейковий банківський рахунок допоміг цьому Левіну отримати кредит чи щось таке.

Ваш часовий пояс: GMT + 2 Години

Нова тема   Відповісти