Нові пригоди песика та його друзів (Рок-кукуріку) / Rock-A-Doodle (1991) 720p Ukr/Eng | Sub Ukr/Eng

Нові коментарі

Нова тема   Відповісти
Останній раз роздавалося leon-ar-visur (2021-03-06)
Автор Повідомлення
Anonymous 







2018-08-05 17:18  
Нові пригоди песика та його друзів / Рок-кукуріку / Rock-A-Doodle (1991) 720p Ukr/Eng | Sub Ukr/Eng

Нові пригоди песика та його друзів (Рок-кукуріку) / Rock-A-Doodle (1991) 720p Ukr/Eng | Sub Ukr/Eng
Український постер від DareDevil96:



Жанр: анімація, комедія, пригодницький, сімейний, музичний
Країна: США, Велика Британія, Ірландія



Кіностудія / кінокомпанія: Goldcrest Films International, Sullivan Bluth Studios
Режисери: Дон Блат / Don Bluth, Гері Голдман / Gary Goldman, Ден Куенстер / Dan Kuenster

Ролі озвучили: Філ Гарріс / Phil Harris, Глен Кемпбелл / Glen Campbell, Едді Дізен / Eddie Deezen, Кетрін Голкомб / Kathryn Holcomb, Тобі Скотт Гангер / Toby Scott Ganger, Стен Івар / Stan Ivar, Крістіан Гофф / Christian Hoff, Джейсон Марін / Jason Marin, Крістофер Пламмер / Christopher Plummer, Сенді Данкан / Sandy Duncan, Вілл Райан / Will Ryan, Чарльз Нельсон Рейлі / Charles Nelson Reilly, Еллен Грін / Ellen Greene, Соррел Бук / Sorrell Booke, Ді Воллес-Стоун / Dee Wallace-Stone, Люсі Чаміс / Louise Chamis, Боб Ґалако / Bob Galaco, Джейк Стайнфелд / Jake Steinfeld, Ліо / Lio та інші

Сюжет:
Щоранку півень Шантеклер будив своєю піснею сонце. Це дуже не подобалося злому пугачеві на прізвисько Великий Герцог, який ненавидів світло і любив нічну темряву.

Одним прекрасним ранком, коли Шантеклер бився з іншим півнем, сонце зійшло без його пісні. І тоді зганьблений співак покинув рідну ферму, щоб знайти щастя у великому місті.

І тут же сонце перестало сходити, а над землею нависли величезні чорні хмари. Великий Герцог уже святкує перемогу, але мешканці ферми на чолі з пухнастим білим кошеням Едмондом відправляються в ризиковану подорож у надії знайти Шантеклера і повернути вкрадене сонце ...
Офіційний оригінальний трейлер:


Рейтинг MPAA: G - немає вікових обмежень
Вікова категорія: 0+
Додаткова інформація для допитливих:

Бюджет: 18 000 000 доларів
Збори в США: 11 657 385 доларів

Назва фільму у інших країнах:
Amigos inseparables - Аргентина
Eddy e la banda del sole luminoso - Італія
En busca del Rey Sol - Іспанія
Mese rockkal - Угорщина
Roco.o.Rico - Франція
Рок ку-ка-ре-ку - РФія
Новые приключения Пса и его друзей - РФія

Фото акторів, що озвучили мультфільм в оригіналі:



Фото режисерів Дон Блата та Гері Голдмана :
Тривалість: 01:14:24
Якість: 720p
Відео:
кодек:
розмір кадру: 1280х690
бітрейт: 9533 кб/с

Аудіо # 1:
мова: українська
переклад: багатоголосий закадровий
кодек: 2.0
бітрейт: 224 кб/с

Аудіо # 2:
мова: англійська
переклад: оригінал | DVD
кодек: 5.1
бітрейт: 384 кб/с

Аудіо # 3:
мова: англійська
переклад: оригінал | Blu-ray
кодек: 2.0
бітрейт: 448 кб/с

Субтитри # 1:
мова: українська
тип: програмні (м'які)
формат: *.srt
примітка: назву перекладено як "Рок-кукуріку"

Субтитри # 2-3:
мова: англійська (повні, SDH)
тип: програмні (м'які)
формат: *.srt
Info
Код:
Complete name               : Rock-A-Doodle (1991) [Ukr,Eng sub.Ukr,Eng] 720p [Hurtom].
Format                      :
Format version              : Version 4 / Version 2
File size                   : 5.50 GiB
Duration                    : 1 h 14 min
Overall bit rate            : 10.6 Mb/s
Movie name                  : Нові пригоди песика та його друзів / Рок-кукуріку / Rock-A-Doodle (1991) [Ukr,Eng sub.Ukr,Eng] 720p [Hurtom]
Released date               : 1991
Encoded date                : UTC 2018-08-05 15:23:20
Writing application         : v25.0.0 ('Prog Noir') 64-bit
Writing library             : libebml v1.3.6 + v1.4.9
Cover                       : Yes
Comment                     : https://www.imdb.com/title/tt0102802/
Attachments                 : cover.jpg
DIRECTOR                    : Дон Блат / Don Bluth, Гері Голдман / Gary Goldman, Ден Куенстер / Dan Kuenster
GENRE                       : анімація, комедія, пригодницький, сімейний, музичний
SYNOPSIS                    : Щоранку півень Шантеклер будив своєю піснею сонце. Це дуже не подобалося злому пугачеві на прізвисько Великий Герцог, який ненавидів світло і любив нічну темряву. / Одним прекрасним ранком, коли Шантеклер бився з іншим півнем, сонце зійшло без його пісні. І тоді зганьблений співак покинув рідну ферму, щоб знайти щастя у великому місті. / І тут же сонце перестало сходити, а над землею нависли величезні чорні хмари. Великий Герцог уже святкує перемогу, але мешканці ферми на чолі з пухнастим білим кошеням Едмондом відправляються в ризиковану подорож у надії знайти Шантеклера і повернути вкрадене сонце ...
Url                         : https://toloka.to/t94010

Video
ID                          : 1
Format                      : AVC
Format/Info                 : Advanced Video Codec
Format profile              : [email protected]
Format settings             : CABAC / 9 Ref Frames
Format settings, CABAC      : Yes
Format settings, ReFrames   : 9 frames
Codec ID                    : V_MPEG4/ISO/AVC
Duration                    : 1 h 14 min
Bit rate                    : 9 533 kb/s
Width                       : 1 280 pixels
Height                      : 690 pixels
Display aspect ratio        : 1.85:1
Frame rate mode             : Constant
Frame rate                  : 23.976 (24000/1001) FPS
Color space                 : YUV
Chroma subsampling          : 4:2:0
Bit depth                   : 8 bits
Scan type                   : Progressive
Bits/(Pixel*Frame)          : 0.450
Stream size                 : 4.95 GiB (90%)
Title                       : Нові пригоди песика та його друзів / Рок-кукуріку / Rock-A-Doodle (1991) [Ukr,Eng sub.Ukr,Eng] 720p [rutracker]
Writing library             : core 152 r2851kMod ba24899
Encoding settings           : cabac=1 / ref=9 / deblock=1:-3:-3 / analyse=0x3:0x133 / me=umh / subme=10 / psy=1 / fade_compensate=0.00 / psy_rd=0.70:0.00 / mixed_ref=1 / me_range=24 / chroma_me=1 / trellis=2 / 8x8dct=1 / cqm=0 / deadzone=21,11 / fast_pskip=0 / chroma_qp_offset=-2 / threads=56 / lookahead_threads=5 / sliced_threads=0 / nr=0 / decimate=0 / interlaced=0 / bluray_compat=0 / constrained_intra=0 / bframes=8 / b_pyramid=2 / b_adapt=2 / b_bias=0 / direct=3 / weightb=1 / open_gop=0 / weightp=2 / keyint=250 / keyint_min=23 / scenecut=40 / intra_refresh=0 / rc_lookahead=60 / rc=crf / mbtree=0 / crf=19.0000 / qcomp=0.65 / qpmin=0 / qpmax=69 / qpstep=4 / vbv_maxrate=62500 / vbv_bufsize=78125 / crf_max=0.0 / nal_hrd=none / filler=0 / ip_ratio=1.30 / pb_ratio=1.20 / aq=3:1.00
Language                    : English
Default                     : Yes
Forced                      : No
Color range                 : Limited
Matrix coefficients         : BT.709

Audio #1
ID                          : 2
Format                      : AC-3
Format/Info                 : Audio Coding 3
Commercial name             : Dolby Digital
Codec ID                    : A_AC3
Duration                    : 1 h 14 min
Bit rate mode               : Constant
Bit rate                    : 224 kb/s
Channel(s)                  : 2 channels
Channel positions           : Front: L R
Sampling rate               : 48.0 kHz
Frame rate                  : 31.250 FPS (1536 SPF)
Bit depth                   : 16 bits
Compression mode            : Lossy
Stream size                 : 119 MiB (2%)
Title                       : MVO [1+1] 2.0 224 Kbps
Language                    : Ukrainian
Service kind                : Complete Main
Default                     : Yes
Forced                      : Yes

Audio #2
ID                          : 3
Format                      : AC-3
Format/Info                 : Audio Coding 3
Commercial name             : Dolby Digital
Codec ID                    : A_AC3
Duration                    : 1 h 14 min
Bit rate mode               : Constant
Bit rate                    : 384 kb/s
Channel(s)                  : 6 channels
Channel positions           : Front: L C R, Side: L R, LFE
Sampling rate               : 48.0 kHz
Frame rate                  : 31.250 FPS (1536 SPF)
Bit depth                   : 16 bits
Compression mode            : Lossy
Stream size                 : 204 MiB (4%)
Title                       : Original, DVD, 5.1 384 Kbps
Language                    : English
Service kind                : Complete Main
Default                     : No
Forced                      : No

Audio #3
ID                          : 4
Format                      : AC-3
Format/Info                 : Audio Coding 3
Commercial name             : Dolby Digital
Codec ID                    : A_AC3
Duration                    : 1 h 14 min
Bit rate mode               : Constant
Bit rate                    : 448 kb/s
Channel(s)                  : 2 channels
Channel positions           : Front: L R
Sampling rate               : 48.0 kHz
Frame rate                  : 31.250 FPS (1536 SPF)
Bit depth                   : 16 bits
Compression mode            : Lossy
Stream size                 : 238 MiB (4%)
Title                       : Original, Blu-ray, 2.0 448 Kbps
Language                    : English
Service kind                : Complete Main
Default                     : No
Forced                      : No

Text #1
ID                          : 5
Format                      : UTF-8
Codec ID                    : S_TEXT/UTF8
Codec ID/Info               : UTF-8 Plain Text
Duration                    : 1 h 4 min
Bit rate                    : 86 b/s
Count of elements           : 743
Stream size                 : 40.9 KiB (0%)
Title                       : Ukr full [DVD R5]
Language                    : Ukrainian
Default                     : No
Forced                      : No

Text #2
ID                          : 6
Format                      : UTF-8
Codec ID                    : S_TEXT/UTF8
Codec ID/Info               : UTF-8 Plain Text
Duration                    : 1 h 5 min
Bit rate                    : 68 b/s
Count of elements           : 1199
Stream size                 : 32.8 KiB (0%)
Title                       : Eng full
Language                    : English
Default                     : No
Forced                      : No

Text #3
ID                          : 7
Format                      : UTF-8
Codec ID                    : S_TEXT/UTF8
Codec ID/Info               : UTF-8 Plain Text
Duration                    : 1 h 7 min
Bit rate                    : 70 b/s
Count of elements           : 1314
Stream size                 : 34.8 KiB (0%)
Title                       : Eng SDH
Language                    : English
Default                     : No
Forced                      : No


Джерело: &
Ріп, український звук та субтитри з рутрекера (xfiles). Постер - DareDevil96, оформлення - urij546724.


Срібний реліз (на рейтинг впливає 50% завантаженого)
 Трекер:    Зареєстрований   

Завантажити / скачати мультфільм українською



відео для новачків



 Зареєстрований:   2018-08-05 17:49
 Розмір:   5.5 GB 
 Оцінка мультфільму:   10/10 (Голосів: 3)
   
Інші релізи
Ваш часовий пояс: GMT + 2 Години

Нова тема   Відповісти