2Pac: Легенда / All Eyez on Me (2017) 720p Ukr/Eng | Sub Eng

Нові коментарі

Нова тема   Відповісти
Останній раз роздавалося Paolo2014 (2020-09-25)
Автор Повідомлення
sergiyko.5 
Попереджень: 1
Попереджень: 1 


З нами з: 25.02.16
Востаннє: 28.09.20
Повідомлень: 3483

2018-08-05 16:18  
2Pac: Легенда / All Eyez on Me (2017) 720p Ukr/Eng | Sub Eng


2Pac: Легенда / All Eyez on Me (2017) 720p Ukr/Eng | Sub Eng

Жанр: драма, біографія, музика
Країна: США
Кінокомпанія: Code Black Entertainment, Morgan Creek Productions, Program Pictures, Voltage Pictures
Режисер: Бенні Бум
Актори: Деметріус Шипп мол., Данай Джекесай Гуріра, Катерина Грехем, Енні Ілонзе, Домінік Сантана, Джамал Вулард, Кіт Робінсон, Лорен Коен

Сюжет:
Події кінострічки розпочинаються у 1995 році, коли у велику нью-йоркську в'язницю приходять журналісти. Привід - скандальний репер 2pac, який загримів за ґрати через звинувачення у зґвалтуванні. Артист розповідає їм про своє дитинство, про переїзд до Каліфорнії, про початок кар'єри та інші знакові моменти своєї біографії. Але все найважливіше відбудеться вже після того, як хлопця випустять на свободу…




Тривалість: 02:19:37
Якість:

Відео: кодек: розмір кадру: 1280 х 538 бітрейт: 5200 кб/с
Аудіо 1: мова: українська переклад: професійний дубльований кодек: 2.0 бітрейт: 192 кб/с
Джерело озвучення: MEGOGO
Аудіо 2: мова: англійська переклад: оригінал кодек: 5.1 бітрейт: 448 кб/с
Субтитри: мова: англійська тип: програмні (м'які) формат: *.srt
Про файл:
General
Unique ID : 231260628094769882922819938464697061690 (0xADFB2D46BBADAC56D2C504DD305A913A)
Complete name : F:\Content\FILMS\All.Eyez.on.Me.2017..720p..Ukr.Eng.
Format :
Format version : Version 4 / Version 2
File size : 5.72 GiB
Duration : 2 h 19 min
Overall bit rate : 5 860 kb/s
Movie name : All Eyez on Me 2017 by sergiyko
Encoded date : UTC 2018-08-05 18:02:40
Writing application : v24.0.0 ('Beyond The Pale') 64-bit
Writing library : libebml v1.3.6 + v1.4.9

Video
ID : 1
Format : AVC
Format/Info : Advanced Video Codec
Format profile : [email protected]
Format settings : CABAC / 12 Ref Frames
Format settings, CABAC : Yes
Format settings, ReFrames : 12 frames
Codec ID : V_MPEG4/ISO/AVC
Duration : 2 h 19 min
Bit rate : 5 219 kb/s
Width : 1 280 pixels
Height : 536 pixels
Display aspect ratio : 2.40:1
Frame rate mode : Constant
Frame rate : 23.976 (24000/1001) FPS
Color space : YUV
Chroma subsampling : 4:2:0
Bit depth : 8 bits
Scan type : Progressive
Bits/(Pixel*Frame) : 0.317
Stream size : 5.09 GiB (89%)
Title : All Eyez on Me 2017
Writing library : core 148 r2744 b97ae06
Encoding settings : cabac=1 / ref=12 / deblock=1:-3:-3 / analyse=0x3:0x133 / me=umh / subme=9 / psy=1 / psy_rd=1.00:0.00 / mixed_ref=1 / me_range=16 / chroma_me=1 / trellis=2 / 8x8dct=1 / cqm=0 / deadzone=21,11 / fast_pskip=1 / chroma_qp_offset=-2 / threads=6 / lookahead_threads=1 / sliced_threads=0 / nr=0 / decimate=1 / interlaced=0 / bluray_compat=0 / constrained_intra=0 / bframes=14 / b_pyramid=2 / b_adapt=2 / b_bias=2 / direct=3 / weightb=1 / open_gop=0 / weightp=2 / keyint=240 / keyint_min=23 / scenecut=40 / intra_refresh=0 / rc_lookahead=60 / rc=2pass / mbtree=1 / bitrate=5219 / ratetol=1.0 / qcomp=0.60 / qpmin=0 / qpmax=69 / qpstep=4 / cplxblur=20.0 / qblur=0.5 / vbv_maxrate=50000 / vbv_bufsize=62500 / nal_hrd=none / filler=0 / ip_ratio=1.40 / aq=1:1.00
Language : English
Default : Yes
Forced : No

Audio #1
ID : 2
Format : AC-3
Format/Info : Audio Coding 3
Codec ID : A_AC3
Duration : 2 h 19 min
Bit rate mode : Constant
Bit rate : 192 kb/s
Channel(s) : 2 channels
Channel positions : Front: L R
Sampling rate : 48.0 kHz
Frame rate : 31.250 FPS (1536 SPF)
Bit depth : 16 bits
Compression mode : Lossy
Delay relative to video : 8 ms
Stream size : 192 MiB (3%)
Title : DUB | МЕГОГО
Language : Ukrainian
Service kind : Complete Main
Default : Yes
Forced : Yes

Audio #2
ID : 3
Format : AC-3
Format/Info : Audio Coding 3
Codec ID : A_AC3
Duration : 2 h 19 min
Bit rate mode : Constant
Bit rate : 448 kb/s
Channel(s) : 6 channels
Channel positions : Front: L C R, Side: L R, LFE
Sampling rate : 48.0 kHz
Frame rate : 31.250 FPS (1536 SPF)
Bit depth : 16 bits
Compression mode : Lossy
Stream size : 447 MiB (8%)
Title : Original
Language : English
Service kind : Complete Main
Default : No
Forced : No

Text
ID : 4
Format : UTF-8
Codec ID : S_TEXT/UTF8
Codec ID/Info : UTF-8 Plain Text
Duration : 2 h 19 min
Bit rate : 92 b/s
Count of elements : 2898
Stream size : 94.5 KiB (0%)
Language : English
Default : No
Forced : No

Menu
00:00:00.000 : en:00:00:00.000
00:08:11.241 : en:00:08:11.241
00:18:13.259 : en:00:18:13.259
00:26:49.900 : en:00:26:49.900
00:35:10.692 : en:00:35:10.692
00:44:50.104 : en:00:44:50.104
00:52:41.533 : en:00:52:41.533
01:01:27.934 : en:01:01:27.934
01:09:20.490 : en:01:09:20.490
01:19:04.657 : en:01:19:04.657
01:27:41.548 : en:01:27:41.548
01:35:07.702 : en:01:35:07.702
01:44:51.952 : en:01:44:51.952
01:52:30.994 : en:01:52:30.994
02:03:28.401 : en:02:03:28.401
02:14:29.061 : en:02:14:29.061
Скріншоти:


Реліз: sergiyko


 Трекер:    Зареєстрований   

Завантажити / скачати фільм українською



відео для новачків



 Зареєстрований:   2018-08-05 22:04
 Розмір:   5.72 GB 
 Оцінка фільму:   7.3/10 (Голосів: 12)
   
Інші релізи
   2Pac: Легенда / All Eyez on Me (2017) Remux 1080p Ukr/Eng | Sub Eng staf777  1 / 0   23.12 GB   2018-08-25 19:40 
   2Pac: Легенда / All Eyez on Me (2017) 1080p Ukr/Eng | Sub Eng staf777  2 / 0   11 GB   2018-08-25 19:11 
   2Pac: Легенда / All Eyez on Me (2017) AVC Ukr/Eng | Sub Eng 11FrYkT  1 / 0   2.65 GB   2018-08-05 22:22 
   2Pac: Легенда / All Eyez on Me (2017) sergiyko.5  1 / 0   1.93 GB   2018-08-05 20:59 
staf777 
Відео Гуртом - підтримка та поширення
Відео Гуртом - підтримка та поширення


З нами з: 16.11.16
Востаннє: 27.09.20
Повідомлень: 4053

2018-08-05 16:34  
1080
bot 
робот


З нами з: 30.09.07
Востаннє: 26.05.05
Повідомлень: 25634

2018-08-05 22:04  
Тему перенесено з Анонси релізів до форуму Фільми в HD


sergiyko.5

Quq 
Новенький


З нами з: 06.06.16
Востаннє: 21.09.20
Повідомлень: 10

2018-08-07 15:49  
фільм так собі, акцент зроблено на життеві труднощі негрів у білому світі, музики замало, життевих подій майже немає - 3/10
Maks Havar 
Новенький


З нами з: 30.11.14
Востаннє: 26.09.20
Повідомлень: 16

2018-08-08 10:26  
На один раз. 4 з 10. Цьому кіно далеченько до таких фільмів як про Ноторіуса або реп-гурт N.W.A - це дійсно шедеври!
Ваш часовий пояс: GMT + 2 Години

Нова тема   Відповісти