Фантоми / Phantoms (1998) 1080p 2xUkr/Eng | Sub Eng

Нові коментарі

Нова тема   Відповісти
Автор Повідомлення
Anonymous 







2018-08-05 14:46  
Фантоми / Phantoms (1998) 1080p 2xUkr/Eng | Sub Eng

Фантоми / Phantoms (1998) 1080p 2xUkr/Eng | Sub Eng


Жанр: жахи, фантастика, трилер
Країна: США, Японія



Кінокомпанія: Miramax, Dimension Films, Fuji Creative
Режисер: Джо Чеппелл
Актори: Бен Аффлек, Пітер О'Тул, Роуз МакҐоун, Джоанна Ґоуінг, Лів Шрайбер, Ніккі Кетт

Сюжет:
Якась страшна сила, що дрімає в надрах землі, одного разу прокидається від сну. Це зловісне Щось, здатне знищити цілі цивілізації, вибирає собі першу жертву - маленьке мирне містечко Сноуфілд в штаті Колорадо. Відразу сотні його жителів вмирають жахливою смертю, а жменька людей, що залишилися в живих, серед яких двоє молодих дівчат, місцевий шериф зі своїм заступником і відомий журналіст, вступають у відчайдушну сутичку зі злом. Тепер в їх руках - доля людства...


Тривалість: 01:36:04
Якість: 1080p

Відео:
кодек: Н.264
розмір кадру: 1920х1080
бітрейт: 8 262 кб/с

Аудіо # 1:
мова: українська
переклад: багатоголосий закадровий
кодек: 2.0
бітрейт: 192 кб/с

Аудіо # 2:
мова: українська
переклад: багатоголосий закадровий
кодек: 2.0
бітрейт: 192 кб/с

Аудіо # 3:
мова: англійська
переклад: оригінал
кодек: 5.1
бітрейт: 1509 кб/с

Субтитри:
мова: англійська
тип: програмні (м'які)
формат: *.srt
Info
General
Unique ID : 232700469557048014295901861641888412358 (0xAF107AF0F648251EAC607D4CDA4B32C6)
Format :
Format version : Version 4 / Version 2
File size : 6.82 GiB
Duration : 1 h 36 min
Overall bit rate : 10.2 Mb/s
Encoded date : UTC 2018-08-05 11:38:15
Writing application : v6.1.0 ('Old Devil') built on Mar 4 2013 09:10:42
Writing library : libebml v1.3.0 + v1.4.0

Video
ID : 1
Format : AVC
Format/Info : Advanced Video Codec
Format profile : [email protected]
Format settings : CABAC / 4 Ref Frames
Format settings, CABAC : Yes
Format settings, ReFrames : 4 frames
Codec ID : V_MPEG4/ISO/AVC
Duration : 1 h 36 min
Bit rate : 8 262 kb/s
Width : 1 920 pixels
Height : 1 080 pixels
Display aspect ratio : 16:9
Frame rate mode : Constant
Frame rate : 23.976 (24000/1001) FPS
Color space : YUV
Chroma subsampling : 4:2:0
Bit depth : 8 bits
Scan type : Progressive
Bits/(Pixel*Frame) : 0.166
Stream size : 5.41 GiB (79%)
Writing library : core 125 r2200 999b753
Encoding settings : cabac=1 / ref=4 / deblock=1:0:0 / analyse=0x3:0x113 / me=umh / subme=8 / psy=1 / psy_rd=1.00:0.00 / mixed_ref=1 / me_range=16 / chroma_me=1 / trellis=1 / 8x8dct=1 / cqm=0 / deadzone=21,11 / fast_pskip=1 / chroma_qp_offset=-2 / threads=12 / lookahead_threads=2 / sliced_threads=0 / nr=0 / decimate=1 / interlaced=0 / bluray_compat=0 / constrained_intra=0 / bframes=3 / b_pyramid=2 / b_adapt=2 / b_bias=0 / direct=3 / weightb=1 / open_gop=0 / weightp=2 / keyint=240 / keyint_min=24 / scenecut=40 / intra_refresh=0 / rc_lookahead=50 / rc=2pass / mbtree=1 / bitrate=8262 / ratetol=1.0 / qcomp=0.60 / qpmin=0 / qpmax=69 / qpstep=4 / cplxblur=20.0 / qblur=0.5 / ip_ratio=1.40 / aq=1:1.00
Language : English
Default : Yes
Forced : No

Audio #1
ID : 2
Format : AC-3
Format/Info : Audio Coding 3
Codec ID : A_AC3
Duration : 1 h 36 min
Bit rate mode : Constant
Bit rate : 192 kb/s
Channel(s) : 2 channels
Channel positions : Front: L R
Sampling rate : 48.0 kHz
Frame rate : 31.250 FPS (1536 SPF)
Bit depth : 16 bits
Compression mode : Lossy
Stream size : 132 MiB (2%)
Title : UKR (ICTV)
Language : Ukrainian
Service kind : Complete Main
Default : Yes
Forced : Yes

Audio #2
ID : 3
Format : AC-3
Format/Info : Audio Coding 3
Codec ID : A_AC3
Duration : 1 h 36 min
Bit rate mode : Constant
Bit rate : 192 kb/s
Channel(s) : 2 channels
Channel positions : Front: L R
Sampling rate : 48.0 kHz
Frame rate : 31.250 FPS (1536 SPF)
Bit depth : 16 bits
Compression mode : Lossy
Stream size : 132 MiB (2%)
Title : UKR (ТРК "Україна")
Language : Ukrainian
Service kind : Complete Main
Default : No
Forced : No

Audio #3
ID : 4
Format :
Format/Info : Digital Theater Systems
Codec ID : A_DTS
Duration : 1 h 36 min
Bit rate mode : Constant
Bit rate : 1 509 kb/s
Channel(s) : 6 channels
Channel positions : Front: L C R, Side: L R, LFE
Sampling rate : 48.0 kHz
Frame rate : 93.750 FPS (512 SPF)
Bit depth : 24 bits
Compression mode : Lossy
Stream size : 1.01 GiB (15%)
Language : English
Default : No
Forced : No

Text
ID : 5
Format : UTF-8
Codec ID : S_TEXT/UTF8
Codec ID/Info : UTF-8 Plain Text
Title : ENG
Language : English
Default : Yes
Forced : No

Menu
00:00:00.000 : en:00:00:00.000
00:06:51.811 : en:00:06:51.811
00:15:29.929 : en:00:15:29.929
00:22:12.331 : en:00:22:12.331
00:28:11.690 : en:00:28:11.690
00:33:31.009 : en:00:33:31.009
00:39:41.379 : en:00:39:41.379
00:47:44.862 : en:00:47:44.862
00:54:27.264 : en:00:54:27.264
01:01:00.991 : en:01:01:00.991
01:06:21.978 : en:01:06:21.978
01:12:12.328 : en:01:12:12.328
01:17:47.663 : en:01:17:47.663
01:21:34.890 : en:01:21:34.890
01:29:08.343 : en:01:29:08.343
Скріншоти







За запис з ICTV дякую пану Bohdan237, за синхронізацію - Arsenfpu
За доріжку від України дякую п. taraskill1, urij546724
За постер дякую пану alexander_bortnyk
Особиста подяка пану denixx за надану матеріальну допомогу на підтримку цього і майбутніх релізів.
Джерело:


Срібний реліз (на рейтинг впливає 50% завантаженого)
 Трекер:    Зареєстрований   

Завантажити / скачати фільм українською



відео для новачків



 Зареєстрований:   2018-08-05 14:46
 Розмір:   6.82 GB 
 Оцінка фільму:   10/10 (Голосів: 4)
   
Інші релізи
   Фантоми / Phantoms (1998) 720p 2xUkr/Eng staf777  1 / 0   3.58 GB   2020-02-28 13:25 
   Фантоми / Phantoms (1998) 2xUkr/Eng taraskill1  3 / 0   1.59 GB   2019-08-08 10:59 
   Фантоми / Phantoms (1998) AVC 2xUkr/Eng Arsenfpu  2 / 0   2.1 GB   2018-03-31 11:59 
Ваш часовий пояс: GMT + 2 Години

Нова тема   Відповісти