Мільйонер мимоволі / Mr. Deeds (2002) 1080p 2xUkr/Eng | Sub Ukr/Eng

Нові коментарі

Нова тема   Відповісти
Автор Повідомлення
Anonymous 







2018-08-05 13:28  
Мільйонер мимоволі / Mr. Deeds (2002) 1080p 2xUkr/Eng | Sub Ukr/Eng

Мільйонер мимоволі / Mr. Deeds (2002) 1080p 2xUkr/Eng | Sub Ukr/Eng
Оригінальний постер

Мільйонер мимоволі / Mr. Deeds (2002) 1080p 2xUkr/Eng | Sub Ukr/Eng


Жанр: комедія, романтичний
Країна: США



Кінокомпанія: Columbia Pictures Corporation, New Line Cinema, Happy Madison Productions
Режисер: Стівен Брілл
Актори: Адам Сендлер, Вайнона Райдер, Джон Туртурро, Аллен Коверт, Пітер Галлахер, Джаред Харріс, Ерік Аварі, Пітер Данте

Сюжет:
У Лонгфелло Дідза два незаперечні таланти - він готує найсмачнішу в місті піцу і вигадує найсміховинніші вітальні листівки. Але одного разу його спокійному життю приходить кінець - його дядько Престон Блейк залишає йому в спадок 40 мільярдів доларів, медіа - імперію, футбольну та баскетбольну команди та особистий вертоліт. Ця історія тут же викликає заздрість знайомих і привертає увагу преси, в тому числі і журналістки Бейб Беннет, яка вирішує обкрутити щасливчика. Але за допомогою свого вірного помічника Еміліо, Дідз вирішує всі проблеми і розуміє, що гроші міняють багато,... але не багатьох...


Тривалість: 01:36:36
Якість: 1080p
Відео:
кодек:
розмір кадру: 1920х1040
бітрейт: 8210 кб/с

Аудіо # 1:
мова: українська
переклад: багатоголосий закадровий
кодек: 2.0
бітрейт: 192 кб/с

Аудіо # 2: ,
мова: українська
переклад: багатоголосий закадровий
кодек: 2.0
бітрейт: 192 кб/с

Аудіо # 3:
мова: англійська
переклад: оригінал
кодек: 5.1
бітрейт: 1509 кб/с

Субтитри # 1:
мова: українська
тип: програмні (м'які)
формат: *.srt
переклад: з російської, п.urij546724

Субтитри # 2-3:
мова: англійська (повні, SDH)
тип: програмні (м'які)
формат: *.srt
Info

General
Unique ID : 214924667932404080825370474337038886052 (0xA1B0FC41977A12539088FCC9D0DDE4A4)
Complete name : H:\Toloka\2019\Mr. Deeds (2002) 1080p.
Format :
Format version : Version 4
File size : 6.95 GiB
Duration : 1 h 36 min
Overall bit rate : 10.3 Mb/s
Encoded date : UTC 2019-09-11 08:03:44
Writing application : v6.1.0 ('Old Devil') built on Mar 4 2013 09:10:42
Writing library : libebml v1.3.0 + v1.4.0

Video
ID : 1
Format : AVC
Format/Info : Advanced Video Codec
Format profile : [email protected]
Format settings : CABAC / 4 Ref Frames
Format settings, CABAC : Yes
Format settings, RefFrames : 4 frames
Codec ID : V_MPEG4/ISO/AVC
Duration : 1 h 36 min
Bit rate : 8 210 kb/s
Width : 1 920 pixels
Height : 1 040 pixels
Display aspect ratio : 1.85:1
Frame rate mode : Constant
Frame rate : 23.976 (24000/1001) FPS
Color space : YUV
Chroma subsampling : 4:2:0
Bit depth : 8 bits
Scan type : Progressive
Bits/(Pixel*Frame) : 0.171
Stream size : 5.40 GiB (78%)
Writing library : core 107 r1745 4785e8e
Encoding settings : cabac=1 / ref=4 / deblock=1:0:0 / analyse=0x3:0x133 / me=umh / subme=7 / psy=1 / psy_rd=1.00:0.00 / mixed_ref=1 / me_range=16 / chroma_me=1 / trellis=1 / 8x8dct=1 / cqm=0 / deadzone=21,11 / fast_pskip=1 / chroma_qp_offset=-2 / threads=12 / sliced_threads=0 / nr=0 / decimate=0 / interlaced=0 / constrained_intra=0 / bframes=3 / b_pyramid=2 / b_adapt=1 / b_bias=0 / direct=3 / weightb=1 / open_gop=0 / weightp=2 / keyint=240 / keyint_min=24 / scenecut=40 / intra_refresh=0 / rc_lookahead=30 / rc=2pass / mbtree=1 / bitrate=8210 / ratetol=1.0 / qcomp=0.60 / qpmin=10 / qpmax=51 / qpstep=4 / cplxblur=20.0 / qblur=0.5 / ip_ratio=1.40 / aq=1:1.00
Language : English
Default : Yes
Forced : No

Audio #1
ID : 2
Format : AC-3
Format/Info : Audio Coding 3
Commercial name : Dolby Digital
Codec ID : A_AC3
Duration : 1 h 36 min
Bit rate mode : Constant
Bit rate : 192 kb/s
Channel(s) : 2 channels
Channel layout : L R
Sampling rate : 48.0 kHz
Frame rate : 31.250 FPS (1536 SPF)
Bit depth : 16 bits
Compression mode : Lossy
Stream size : 133 MiB (2%)
Title : UKR (Paramount Comedy)
Language : Ukrainian
Service kind : Complete Main
Default : Yes
Forced : Yes

Audio #2
ID : 3
Format : AC-3
Format/Info : Audio Coding 3
Commercial name : Dolby Digital
Codec ID : A_AC3
Duration : 1 h 36 min
Bit rate mode : Constant
Bit rate : 192 kb/s
Channel(s) : 2 channels
Channel layout : L R
Sampling rate : 48.0 kHz
Frame rate : 31.250 FPS (1536 SPF)
Bit depth : 16 bits
Compression mode : Lossy
Stream size : 133 MiB (2%)
Title : UKR (Новий, ТРК "Україна")
Language : Ukrainian
Service kind : Complete Main
Default : No
Forced : No

Audio #3
ID : 4
Format :
Format/Info : Digital Theater Systems
Codec ID : A_DTS
Duration : 1 h 36 min
Bit rate mode : Constant
Bit rate : 1 509 kb/s
Channel(s) : 6 channels
Channel layout : C L R Ls Rs LFE
Sampling rate : 48.0 kHz
Frame rate : 93.750 FPS (512 SPF)
Bit depth : 24 bits
Compression mode : Lossy
Stream size : 1.02 GiB (15%)
Title : English 1509kbps
Language : English
Default : No
Forced : No

Audio #4
ID : 8
Format : AC-3
Format/Info : Audio Coding 3
Commercial name : Dolby Digital
Codec ID : A_AC3
Duration : 1 h 36 min
Bit rate mode : Constant
Bit rate : 192 kb/s
Channel(s) : 2 channels
Channel layout : L R
Sampling rate : 48.0 kHz
Frame rate : 31.250 FPS (1536 SPF)
Bit depth : 16 bits
Compression mode : Lossy
Stream size : 133 MiB (2%)
Service kind : Complete Main
Default : No
Forced : No

Text #1
ID : 5
Format : UTF-8
Codec ID : S_TEXT/UTF8
Codec ID/Info : UTF-8 Plain Text
Title : UKR
Language : Ukrainian
Default : Yes
Forced : No

Text #2
ID : 6
Format : UTF-8
Codec ID : S_TEXT/UTF8
Codec ID/Info : UTF-8 Plain Text
Title : English
Language : English
Default : No
Forced : No

Text #3
ID : 7
Format : UTF-8
Codec ID : S_TEXT/UTF8
Codec ID/Info : UTF-8 Plain Text
Title : English-SDH
Language : English
Default : No
Forced : No

Menu
00:00:00.000 : en:00:00:00.000
00:05:49.432 : en:00:05:49.432
00:09:30.487 : en:00:09:30.487
00:18:15.344 : en:00:18:15.344
00:23:24.987 : en:00:23:24.987
00:26:52.402 : en:00:26:52.402
00:32:12.556 : en:00:32:12.556
00:36:16.341 : en:00:36:16.341
00:44:14.068 : en:00:44:14.068
00:47:09.368 : en:00:47:09.368
00:56:20.377 : en:00:56:20.377
00:59:02.038 : en:00:59:02.038
01:07:05.813 : en:01:07:05.813
01:12:37.812 : en:01:12:37.812
01:19:25.469 : en:01:19:25.469
01:23:46.939 : en:01:23:46.939
Скріншоти






За запис звуку з каналу Paramount Comedy дякуємо пану Neytreenor
За українську доріжку #2 подяка п. Arsenfpu і Bohdan237
За українські субтитри дякую пану urij546724
За український постер дякую пану DareDevil96
Особиста подяка пану denixx за надану матеріальну допомогу на підтримку цього і майбутніх релізів.
Джерело:


Срібний реліз (на рейтинг впливає 50% завантаженого)
 Трекер:    Зареєстрований   

Завантажити / скачати фільм українською



відео для новачків



 Зареєстрований:   2019-09-11 10:09
 Розмір:   6.95 GB 
 Оцінка фільму:   9.4/10 (Голосів: 9)
   
Anonymous 







2019-09-11 10:09  
Додано доріжку від Paramount Comedy
taksist 
VIP


З нами з: 10.12.12
Востаннє: 19.11.19
Повідомлень: 273

2019-09-11 17:10  
з якої планети привезли людей, що ставлять фільмам з адамом сендлером більше двійки по десятибальній?
+380954897458 
VIP


З нами з: 02.06.17
Востаннє: 19.11.19
Повідомлень: 484

2019-09-11 21:57  
taksist
Ну, навіщо так зверхньо ставитися до людей, смаки яких відрізняються від Ваших? Я знаю про що кажу, бо сам маю такі гріхи.

Ваш часовий пояс: GMT + 2 Години

Нова тема   Відповісти