Щасливчик Фред / Lucky Fred (Сезон 1, серій 13 з 52) (2011) HDTV 1080p Ukr/Eng

Нові коментарі

Нова тема   Відповісти
Автор Повідомлення
sergiyko.5 
Забанено
Забанено


З нами з: 25.02.16
Востаннє: 29.10.20
Повідомлень: 3648

2018-08-05 12:32  
Щасливчик Фред / Lucky Fred (Сезон 1, серій 13 з 52) (2011) HDTV 1080p Ukr/Eng

Щасливчик Фред / Lucky Fred (Сезон 1, серій 13 з 52) (2011) HDTV 1080p Ukr/Eng

Жанр: пригоди
Країна: Іспанія
Режисер: Міріам Балестерос

Сюжет:
Головний герой мультфільму хлопець по імені Фред, незвичайний хлопчик, який мріє виділитися з натовпу, стати героєм для всіх. Фред хотів стати кращим ученем у класі та капітаном футбольної команди, а також завоювати серце самої красивої дівчини в школі. Все це було лише незбагненною мрією, поки одразу на голову Фред з космосу не впав дивовижний робот, що володіє просто фантастичними здібностями. Звали його П'ятниця і він вміє прийняти форму будь-яких предметів. Так само у Фреда несподівано з'явився ще один друг - дівчина за іменем Брейн, яка виявилася космічним новим, замаскованою однокласницею. Теперь Фреда отримав новий сенс, але з'явилися й інші проблеми, вже вселенського масштабу.




Тривалість: 1 серія: 12:10 (цілком серій: 13 з 52)
Якість: HDTV

Відео: кодек: розмір кадру: 1920 х 1080 бітрейт: 4800 кб/с
Аудіо # 1: мова: українська переклад: професійний дубльований кодек: MP2 бітрейт: 224 кб/с
Озвучення:
Аудіо # 2: мова: англійська переклад: оригінал кодек: MP2 бітрейт: 224 кб/с
Перелік серій
01 Блюз нудьги
02 Любов цуценяти
03 Не надто гучний гуркіт
05 Агент Альфа-один
06 Несправедлива наука

12 Підкорювач погоди

25 Новий Фред
31 Повернення П'ятниці
38 Вільний вечір
40 Неймовірні фото
44 Желатіна
47 Гіганти і голови
49 Морквотат
Про файл:
General
Unique ID : 158937764020621894611545670982054787960 (0x77924CC662C294DC977D10689D093B78)
Complete name : D:\Torrents\MULT\Lucky Fred S01 1080p HDTV\Lucky.Fred.S01E01.Boredom.Blues.1080p.HDTV.Ukr.Eng.
Format :
Format version : Version 4 / Version 2
File size : 442 MiB
Duration : 11 min 50 s
Overall bit rate mode : Constant
Overall bit rate : 5 218 kb/s
Movie name : Lucky Fred S01 1080p HDTV
Encoded date : UTC 2018-08-05 09:12:54
Writing application : v24.0.0 ('Beyond The Pale') 64-bit
Writing library : libebml v1.3.6 + v1.4.9

Video
ID : 1
Format : AVC
Format/Info : Advanced Video Codec
Format profile : [email protected]
Format settings : CABAC / 4 Ref Frames
Format settings, CABAC : Yes
Format settings, ReFrames : 4 frames
Codec ID : V_MPEG4/ISO/AVC
Duration : 11 min 50 s
Bit rate mode : Constant
Bit rate : 4 768 kb/s
Nominal bit rate : 7 000 kb/s
Width : 1 920 pixels
Height : 1 080 pixels
Display aspect ratio : 16:9
Frame rate mode : Constant
Frame rate : 25.000 FPS
Color space : YUV
Chroma subsampling : 4:2:0
Bit depth : 8 bits
Scan type : Progressive
Bits/(Pixel*Frame) : 0.092
Stream size : 404 MiB (91%)
Title : S01E01.Boredom.Blues
Language : English
Default : Yes
Forced : No

Audio #1
ID : 2
Format : MPEG Audio
Format version : Version 1
Format profile : Layer 2
Codec ID : A_MPEG/L2
Codec ID/Hint : MP2
Duration : 11 min 49 s
Bit rate mode : Constant
Bit rate : 224 kb/s
Channel(s) : 2 channels
Sampling rate : 48.0 kHz
Frame rate : 41.667 FPS (1152 SPF)
Compression mode : Lossy
Stream size : 19.0 MiB (4%)
Title : DUB MP2 | NIKI Kids
Language : Ukrainian
Default : Yes
Forced : Yes

Audio #2
ID : 3
Format : MPEG Audio
Format version : Version 1
Format profile : Layer 2
Codec ID : A_MPEG/L2
Codec ID/Hint : MP2
Duration : 11 min 49 s
Bit rate mode : Constant
Bit rate : 224 kb/s
Channel(s) : 2 channels
Sampling rate : 48.0 kHz
Frame rate : 41.667 FPS (1152 SPF)
Compression mode : Lossy
Stream size : 19.0 MiB (4%)
Title : Original
Language : English
Default : No
Forced : No
Скріншоти:


Автор запису: krigg070

Порівняння спектру доріжки 128kbps та HDTV 224kbps:



Бронзовий реліз (на рейтинг впливає 75% завантаженого)
 Трекер:    Зареєстрований   

Завантажити / скачати мультфільм українською



відео для новачків



 Зареєстрований:   2018-08-23 12:12
 Розмір:   5.9 GB 
 Оцінка мультсеріалу:   10/10 (Голосів: 3)
   
sergiyko.5 
Забанено
Забанено


З нами з: 25.02.16
Востаннє: 29.10.20
Повідомлень: 3648

2018-08-23 12:12  
Додав нові серії.
Ваш часовий пояс: GMT + 2 Години

Нова тема   Відповісти