Наші пані у Варшаві. Нові пригоди (Сезон 2) / Dziewczyny ze Lwowa (Season 2) (2017) 1080p Ukr/Pol

Нові коментарі

Нова тема   Відповісти
Автор Повідомлення
Anonymous 







2018-08-05 10:28  
Наші пані у Варшаві. Нові пригоди (Сезон 2) / Dziewczyny ze Lwowa (Season 2) (2017) 1080p Ukr/Pol

Наші пані у Варшаві. Нові пригоди (Сезон 2) / Dziewczyny ze Lwowa (Season 2) (2017) 1080p Ukr/Pol


Жанр: драма, комедія
Країна: Польща



Кінокомпанія: Studio A. / TVP
Режисер: Войцєх Адамчик (Wojciech Adamczyk)
Актори: Анна Ґорайска (Anna Gorajska), Маґдалена Врубель (Magdalena Wróbel), Катажина Ухерська (Katarzyna Ucherska), Анна Марія Бучек (Anna Maria Buczek), Станіслав Брейдигант (Stanislaw Brejdygant), Адріан Заремба (Adrian Zaremba) та інші

Сюжет:
Серіал розповідає історію чотирьох дівчат з України, Уляни, Поліни, Олі і Світлани, які шукають кращої долі у Польщі. Вони приїжджають до Варшави в спробі знайти роботу і звісно ж змушені працювати не за спеціальністю. Втім, після низки невдач, їх життя починає змінюватись на краще…


Тривалість: 1 серія: ~42 хв. (цілком серій: 13)
Перелік серій
01) Прийом / Przyjęcie
02) Тимчасова вдова / Przelotna wdowa
03) Контрабанда / Kontrabanda
04) Концерт / Koncert
05) Анна Кареніна / Anna Karenina
06) Шокова терапія / Terapia szokowa
07) Карта поляка / Karta Polaka
08) Новий мешканець / Nowy lokator
09) Через шлунок до всього іншого / Przez żołądek do całej reszty
10) Сюрпризи за сюрпризами / Niespodzianki chodzą po ludziach
11) Наукові методи / Metody naukowe
12) Український призов / Zaciąg ukraiński
13) Одна за всіх / Jedna za wszystkie
Якість:
Відео:
кодек:
розмір кадру: 1920 х 1080
бітрейт: ~6000 кб/с

Аудіо # 1:
мова: українська
переклад: професійний дубльований
кодек: 2.0
бітрейт: 256 кб/с

Аудіо # 2:
мова: польська
переклад: оригінал
кодек: 2.0
бітрейт: 96 кб/с

Джерело озвучення:
Info
General
Unique ID : 146509872521161513817655834993277235249 (0x6E38C66A92E060CAF0A748A25B537031)
Complete name : E:\Support\Наші пані у Варшаві (Сезон 2) [, 1080p, Ukr, Pol]\Наші пані у Варшаві. S02E01. Прийом.
Format :
Format version : Version 4 / Version 2
File size : 1.90 GiB
Duration : 42 min 31 s
Overall bit rate : 6 401 kb/s
Encoded date : UTC 2018-08-04 10:31:10
Writing application : v25.0.0 ('Prog Noir') 64-bit
Writing library : libebml v1.3.6 + v1.4.9

Video
ID : 1
Format : AVC
Format/Info : Advanced Video Codec
Format profile : [email protected]
Format settings : CABAC / 4 Ref Frames
Format settings, CABAC : Yes
Format settings, ReFrames : 4 frames
Codec ID : V_MPEG4/ISO/AVC
Duration : 42 min 31 s
Bit rate : 6 045 kb/s
Width : 1 920 pixels
Height : 1 080 pixels
Display aspect ratio : 16:9
Frame rate mode : Constant
Frame rate : 25.000 FPS
Color space : YUV
Chroma subsampling : 4:2:0
Bit depth : 8 bits
Scan type : Progressive
Bits/(Pixel*Frame) : 0.117
Stream size : 1.80 GiB (94%)
Writing library : core 155 r2901M 7d0ff22
Encoding settings : cabac=1 / ref=4 / deblock=1:-4:-4 / analyse=0x3:0x113 / me=umh / subme=10 / psy=1 / psy_rd=1.00:0.00 / mixed_ref=1 / me_range=48 / chroma_me=1 / trellis=2 / 8x8dct=1 / cqm=0 / deadzone=21,11 / fast_pskip=1 / chroma_qp_offset=-2 / threads=5 / lookahead_threads=1 / sliced_threads=0 / nr=0 / decimate=1 / interlaced=0 / bluray_compat=0 / constrained_intra=0 / bframes=8 / b_pyramid=2 / b_adapt=2 / b_bias=0 / direct=3 / weightb=1 / open_gop=0 / weightp=2 / keyint=250 / keyint_min=25 / scenecut=40 / intra_refresh=0 / rc_lookahead=60 / rc=crf / mbtree=1 / crf=18.0 / qcomp=0.60 / qpmin=0 / qpmax=69 / qpstep=4 / ip_ratio=1.40 / aq=1:1.00
Default : Yes
Forced : No
Color range : Full

Audio #1
ID : 2
Format :
Format/Info : Advanced Audio Codec
Format profile : LC
Codec ID : A_AAC-2
Duration : 42 min 30 s
Bit rate : 256 kb/s
Channel(s) : 2 channels
Channel positions : Front: L R
Sampling rate : 44.1 kHz
Frame rate : 43.066 FPS (1024 SPF)
Compression mode : Lossy
Delay relative to video : 14 ms
Stream size : 77.8 MiB (4%)
Title : 1+1
Language : Ukrainian
Default : Yes
Forced : No

Audio #2
ID : 3
Format :
Format/Info : Advanced Audio Codec
Format profile : LC
Codec ID : A_AAC-2
Duration : 42 min 31 s
Bit rate : 96.0 kb/s
Channel(s) : 2 channels
Channel positions : Front: L R
Sampling rate : 44.1 kHz
Frame rate : 43.066 FPS (1024 SPF)
Compression mode : Lossy
Stream size : 29.5 MiB (2%)
Language : Polish
Default : No
Forced : No
Скріншоти
Джерело: &
Особиста оцінка: 0 - не дивився




Бронзовий реліз (на рейтинг впливає 75% завантаженого)
 Трекер:    Зареєстрований   

Завантажити / скачати серіал українською



відео для новачків



 Зареєстрований:   2018-08-05 10:28
 Розмір:   25.18 GB 
 Оцінка серіалу:   10/10 (Голосів: 8)
   
vl80 
Новенький


З нами з: 26.05.13
Востаннє: 08.11.20
Повідомлень: 6

2018-08-05 19:13  
Чи буде реліз в 720р або іншій роздільній здатності?
Anonymous 







2018-08-11 15:00  
vl80 написано:
Чи буде реліз в 720р або іншій роздільній здатності?

AVC

Ros 
Новенький


З нами з: 29.02.08
Востаннє: 29.11.20
Повідомлень: 4

2019-12-09 01:09  
Як з третім сезоном?
Anonymous 







2019-12-09 10:40  
Ros написано:
Як з третім сезоном?

Нічого не чутно.

Wehrwolfss 
Новенький


З нами з: 20.05.20
Востаннє: 12.11.20
Повідомлень: 1

2020-05-20 13:35  
Дуже дякую за цю роздачу! Ніде не зміг знайти 2 сезон, навіть на рутрекері! І чому з сайту телеканалу 1 + 1 видалили? Теж не міг ніяк подивитися, заблокований перегляд, можливо, авторські права закінчилися?

Прошу, панове, порекомендуйте щось схоже від поляків, якщо можна)

Ваш часовий пояс: GMT + 2 Години

Нова тема   Відповісти