Белль / Belle (2013) 1080p Ukr/Eng | Sub Ukr/Eng

Нові коментарі

Нова тема   Відповісти
Автор Повідомлення
Anonymous 







2018-08-05 09:27  
Белль / Belle (2013) 1080p Ukr/Eng | Sub Ukr/Eng

Белль / Belle (2013) 1080p Ukr/Eng | Sub Ukr/Eng


Жанр: драма, біографічний, романтичний
Країна: Велика Британія



Кінокомпанія: DJ Films, Isle of Man Film, British Film Institute (BFI)
Режисер: Емма Азанте
Актори: Ґуґу Мбата-Роу, Метью Ґуд, Емілі Вотсон та інші

Сюжет:
Сюжет фільму заснований на житті Дайдо Елізабет Белль. Вона була позашлюбною дочкою капітана королівського флоту Джона Ліндсі, а її мати - чорношкіра жінка по йменню Марія Белль.


Тривалість: 01:43:50
Якість: 1080p
Відео:
кодек:
розмір кадру: 1920х802
бітрейт: 11.2 Mb/s

Аудіо # 1:
мова: українська
переклад: багатоголосий закадровий
кодек: 2.0
бітрейт: 192 кб/с

Аудіо # 2:
мова: англійська
переклад: оригінал
кодек: 5.1
бітрейт: 1509 кб/с

Субтитри:
мова: українська
тип: програмні (м'які)
формат: *.srt

Субтитри:
мова: англійська
тип: програмні (м'які)
формат: *.srt
Info
General
Unique ID : 190437013659441506044961464901728332427 (0x8F44D5AFBA421F9895B25C3189F5EA8B)
Format :
Format version : Version 4 / Version 2
File size : 9.56 GiB
Duration : 1 h 43 min
Overall bit rate : 13.2 Mb/s
Encoded date : UTC 2018-08-05 06:18:27
Writing application : v6.1.0 ('Old Devil') built on Mar 4 2013 09:10:42
Writing library : libebml v1.3.0 + v1.4.0

Video
ID : 1
Format : AVC
Format/Info : Advanced Video Codec
Format profile : [email protected]
Format settings : CABAC / 5 Ref Frames
Format settings, CABAC : Yes
Format settings, ReFrames : 5 frames
Codec ID : V_MPEG4/ISO/AVC
Duration : 1 h 43 min
Bit rate : 11.2 Mb/s
Width : 1 920 pixels
Height : 802 pixels
Display aspect ratio : 2.40:1
Frame rate mode : Constant
Frame rate : 23.976 (24000/1001) FPS
Color space : YUV
Chroma subsampling : 4:2:0
Bit depth : 8 bits
Scan type : Progressive
Bits/(Pixel*Frame) : 0.304
Stream size : 8.14 GiB (85%)
Writing library : core 142 r2453kMod ea0ca51
Encoding settings : cabac=1 / ref=5 / deblock=1:-3:-3 / analyse=0x3:0x133 / me=umh / subme=10 / psy=1 / fade_compensate=0.00 / psy_rd=1.02:0.00 / mixed_ref=1 / me_range=16 / chroma_me=1 / trellis=2 / 8x8dct=1 / cqm=0 / deadzone=21,11 / fast_pskip=0 / chroma_qp_offset=-2 / threads=12 / lookahead_threads=3 / sliced_threads=0 / nr=0 / decimate=0 / interlaced=0 / bluray_compat=0 / constrained_intra=0 / fgo=0 / bframes=10 / b_pyramid=2 / b_adapt=2 / b_bias=0 / direct=3 / weightb=1 / open_gop=0 / weightp=2 / keyint=250 / keyint_min=23 / scenecut=40 / intra_refresh=0 / rc_lookahead=60 / rc=crf / mbtree=0 / crf=16.0000 / qcomp=0.65 / qpmin=0 / qpmax=69 / qpstep=4 / vbv_maxrate=50000 / vbv_bufsize=62500 / crf_max=0.0 / nal_hrd=none / filler=0 / ip_ratio=1.20 / pb_ratio=1.20 / aq=3:0.70
Language : English
Default : No
Forced : No
Statistics Tags Issue : v7.1.0 ('Good Love') 32bit built on Jul 27 2014 12:59:18 2014-08-14 10:07:47 / v6.1.0 ('Old Devil') built on Mar 4 2013 09:10:42 2018-08-05 06:18:27
FromStats_BitRate : 11483306
FromStats_Duration : 01:43:50.224000000
FromStats_FrameCount : 149376
FromStats_StreamSize : 8942946799

Audio #1
ID : 2
Format : AC-3
Format/Info : Audio Coding 3
Codec ID : A_AC3
Duration : 1 h 43 min
Bit rate mode : Constant
Bit rate : 192 kb/s
Channel(s) : 2 channels
Channel positions : Front: L R
Sampling rate : 48.0 kHz
Frame rate : 31.250 FPS (1536 SPF)
Bit depth : 16 bits
Compression mode : Lossy
Stream size : 143 MiB (1%)
Title : UKR (1+1)
Language : Ukrainian
Service kind : Complete Main
Default : Yes
Forced : Yes

Audio #2
ID : 3
Format :
Format/Info : Digital Theater Systems
Codec ID : A_DTS
Duration : 1 h 43 min
Bit rate mode : Constant
Bit rate : 1 509 kb/s
Channel(s) : 6 channels
Channel positions : Front: L C R, Side: L R, LFE
Sampling rate : 48.0 kHz
Frame rate : 93.750 FPS (512 SPF)
Bit depth : 24 bits
Compression mode : Lossy
Delay relative to video : 11 ms
Stream size : 1.09 GiB (11%)
Title : 5.1 @ 1510 kbps
Language : English
Default : No
Forced : No
Statistics Tags Issue : v7.1.0 ('Good Love') 32bit built on Jul 27 2014 12:59:18 2014-08-14 10:07:47 / v6.1.0 ('Old Devil') built on Mar 4 2013 09:10:42 2018-08-05 06:18:27
FromStats_BitRate : 1509000
FromStats_Duration : 01:43:50.272000000
FromStats_FrameCount : 584088
FromStats_StreamSize : 1175185056

Text #1
ID : 4
Format : UTF-8
Codec ID : S_TEXT/UTF8
Codec ID/Info : UTF-8 Plain Text
Title : Ukrainian @ BluRay
Language : Ukrainian
Default : No
Forced : No

Text #2
ID : 5
Format : UTF-8
Codec ID : S_TEXT/UTF8
Codec ID/Info : UTF-8 Plain Text
Language : English
Default : No
Forced : No
Statistics Tags Issue : v7.1.0 ('Good Love') 32bit built on Jul 27 2014 12:59:18 2014-08-14 10:07:47 / v6.1.0 ('Old Devil') built on Mar 4 2013 09:10:42 2018-08-05 06:18:27
FromStats_BitRate : 63
FromStats_Duration : 01:35:57.459000000
FromStats_FrameCount : 1250
FromStats_StreamSize : 45978

Text #3
ID : 6
Format : UTF-8
Codec ID : S_TEXT/UTF8
Codec ID/Info : UTF-8 Plain Text
Title : SDH
Language : English
Default : No
Forced : No
Statistics Tags Issue : v7.1.0 ('Good Love') 32bit built on Jul 27 2014 12:59:18 2014-08-14 10:07:47 / v6.1.0 ('Old Devil') built on Mar 4 2013 09:10:42 2018-08-05 06:18:27
FromStats_BitRate : 55
FromStats_Duration : 01:43:17.733000000
FromStats_FrameCount : 1059
FromStats_StreamSize : 42690

Menu
00:00:00.000 : en:Chapter 01
00:03:05.936 : en:Chapter 02
00:06:12.372 : en:Chapter 03
00:09:26.399 : en:Chapter 04
00:11:32.942 : en:Chapter 05
00:13:39.360 : en:Chapter 06
00:15:51.367 : en:Chapter 07
00:20:29.145 : en:Chapter 08
00:23:45.633 : en:Chapter 09
00:27:29.273 : en:Chapter 10
00:29:37.025 : en:Chapter 11
00:32:49.009 : en:Chapter 12
00:34:40.578 : en:Chapter 13
00:36:58.216 : en:Chapter 14
00:39:22.443 : en:Chapter 15
00:41:31.280 : en:Chapter 16
00:44:38.759 : en:Chapter 17
00:47:47.698 : en:Chapter 18
00:49:29.216 : en:Chapter 19
00:52:58.759 : en:Chapter 20
00:56:23.046 : en:Chapter 21
01:00:39.302 : en:Chapter 22
01:03:51.036 : en:Chapter 23
01:08:01.286 : en:Chapter 24
01:10:44.824 : en:Chapter 25
01:14:45.189 : en:Chapter 26
01:19:24.093 : en:Chapter 27
01:23:06.690 : en:Chapter 28
01:26:01.323 : en:Chapter 29
01:29:12.264 : en:Chapter 30
01:35:24.886 : en:Chapter 31
01:37:57.080 : en:Chapter 32
Скріншоти







За українську доріжку подяка п. krigg070
Особиста подяка пану denixx за надану матеріальну допомогу на підтримку цього і майбутніх релізів.
Джерело:


 Трекер:    Зареєстрований   

Завантажити / скачати фільм українською



відео для новачків



 Зареєстрований:   2018-08-05 09:27
 Розмір:   9.56 GB 
 Оцінка фільму:   10/10 (Голосів: 6)
   
Інші релізи
   Белль / Belle (2013) AVC Ukr/Eng | Sub Eng krigg070  6 / 0   1.88 GB   2017-08-31 18:28 
   Белль / Belle (2013) AVC Eng | sub Ukr/Eng The_Marlboro  2 / 0   1.86 GB   2016-02-15 18:13 
Ваш часовий пояс: GMT + 2 Години

Нова тема   Відповісти