Тілоохоронець кілера / The Hitman's Bodyguard (2017) 1080p H.265 Ukr/Eng | Sub Eng

Нові коментарі

Нова тема   Відповісти
Автор Повідомлення
ukr_anonymous 
Попереджень: 1
Попереджень: 1 


З нами з: 17.04.18
Востаннє: 17.10.18
Повідомлень: 222

2018-08-05 03:20  
Тілоохоронець кілера / The Hitman's Bodyguard (2017) 1080p H.265 Ukr/Eng | Sub Eng

Тілоохоронець кілера / The Hitman's Bodyguard (2017) 1080p H.265 Ukr/Eng | Sub Eng


Жанр: бойовик, комедія
Країна: США, Китай, Болгарія, Голандія



Кінокомпанія: Lionsgate, Millennium Films, Campbell Grobman Films, Skydance Productions
Режисер: Патрік Х'юз
Актори: Раян Рейнольдс, Семюел Л. Джексон, Сальма Хайек, Елоді Юнґ, Ґері Олдман, Хоакім Де Альмейда, Річард Е. Грант, Сем Хезелдайн, Род Халлетт, Юрій Колокольніков та інші

Сюжет:
Безпека – його друге ім'я. Все, що може загрожувати життю і здоров'ю людини він вміє передбачати і запобігати цьому. Адже він – професійний охоронець. А ось в підопічні йому дістається повна його протилежність. Професія цього самовпевненого нахаби полягає в тому, щоб вбивати людей. Він знає все про способи змусити когось попрощатися з життям. І можливо ці двоє добре б спрацювалися, але підхід до справи у них кардинально протилежний.


Тривалість: 01:58:17
Якість:
Відео:
кодек: H.265 (HEVC)
розмір кадру: 1920 х 800
бітрейт: 6 082 кб/с
бітова глибина: 10 біт
Увага! Перед завантаженням переконайтесь, що ваш пристрій відтворення (та/або ПЗ) підтримує H.265 (HEVC)

Аудіо # 1:
мова: українська
переклад: професійний дубльований
кодек: 2.0
бітрейт: 192 кб/с

Аудіо # 2:
мова: англійська
переклад: оригінал
кодек: 5.1
бітрейт: 448 кб/с

Субтитри:
мова: англійська
тип: програмні (м'які)
формат: *.srt
Info
Код:
General
Unique ID                                : 319036581408642413700980012473353495538 (0xF00435E689C8B6718520E397953FE3F2)
Complete name                            : E:\video\The Hitman's Bodyguard (2017) 1080p H.265 [UKR_ENG].
Format                                   :
Format version                           : Version 4 / Version 2
File size                                : 5.47 GiB
Duration                                 : 1 h 58 min
Overall bit rate                         : 6 622 kb/s
Movie name                               : The Hitman's Bodyguard (2017)
Encoded date                             : UTC 2018-08-05 00:08:02
Writing application                      : v20.0.0 ('I Am The Sun') 32-bit
Writing library                          : libebml v1.3.5 + v1.4.8
Cover                                    : Yes
Attachments                              : cover

Video
ID                                       : 1
Format                                   : HEVC
Format/Info                              : High Efficiency Video Coding
Format profile                           : Main [email protected]@Main
Codec ID                                 : V_MPEGH/ISO/HEVC
Duration                                 : 1 h 58 min
Bit rate                                 : 6 082 kb/s
Width                                    : 1 920 pixels
Height                                   : 800 pixels
Display aspect ratio                     : 2.40:1
Frame rate mode                          : Constant
Frame rate                               : 23.976 (24000/1001) FPS
Standard                                 : Component
Color space                              : YUV
Chroma subsampling                       : 4:2:0
Bit depth                                : 10 bits
Bits/(Pixel*Frame)                       : 0.165
Stream size                              : 5.03 GiB (92%)
Default                                  : Yes
Forced                                   : No
Color range                              : Limited

Audio #1
ID                                       : 2
Format                                   : AC-3
Format/Info                              : Audio Coding 3
Codec ID                                 : A_AC3
Duration                                 : 1 h 58 min
Bit rate mode                            : Constant
Bit rate                                 : 192 kb/s
Channel(s)                               : 2 channels
Channel positions                        : Front: L R
Sampling rate                            : 48.0 kHz
Frame rate                               : 31.250 FPS (1536 SPF)
Bit depth                                : 16 bits
Compression mode                         : Lossy
Stream size                              : 162 MiB (3%)
Title                                    : 2.0 @ 192 kbps
Language                                 : Ukrainian
Service kind                             : Complete Main
Default                                  : Yes
Forced                                   : Yes

Audio #2
ID                                       : 3
Format                                   : AC-3
Format/Info                              : Audio Coding 3
Codec ID                                 : A_AC3
Duration                                 : 1 h 31 min
Bit rate mode                            : Constant
Bit rate                                 : 448 kb/s
Channel(s)                               : 6 channels
Channel positions                        : Front: L C R, Side: L R, LFE
Sampling rate                            : 48.0 kHz
Frame rate                               : 31.250 FPS (1536 SPF)
Bit depth                                : 16 bits
Compression mode                         : Lossy
Stream size                              : 292 MiB (5%)
Title                                    : 5.1 @ 448 kbps
Language                                 : English
Service kind                             : Complete Main
Default                                  : No
Forced                                   : No

Text
ID                                       : 4
Format                                   : UTF-8
Codec ID                                 : S_TEXT/UTF8
Codec ID/Info                            : UTF-8 Plain Text
Duration                                 : 1 h 56 min
Bit rate                                 : 59 b/s
Count of elements                        : 1486
Stream size                              : 51.0 KiB (0%)
Language                                 : English
Default                                  : No
Forced                                   : No

Menu
00:00:00.000                             : en:00:00:00.000
00:07:22.942                             : en:00:07:22.942
00:13:53.875                             : en:00:13:53.875
00:20:23.305                             : en:00:20:23.305
00:27:20.138                             : en:00:27:20.138
00:32:53.513                             : en:00:32:53.513
00:38:25.428                             : en:00:38:25.428
00:46:52.977                             : en:00:46:52.977
00:56:39.354                             : en:00:56:39.354
01:00:23.370                             : en:01:00:23.370
01:09:11.397                             : en:01:09:11.397
01:16:34.381                             : en:01:16:34.381
01:21:11.241                             : en:01:21:11.241
01:27:45.093                             : en:01:27:45.093
01:35:06.743                             : en:01:35:06.743
01:40:37.740                             : en:01:40:37.740
Скріншоти



Джерело:
Особиста оцінка: 8 - мені сподобалося

ЗАЛИШАЙТЕСЬ ЯКОМОГА ДОВШЕ НА РОЗДАЧІ!
ЗАВАНТАЖИВ САМ - ДАЙ ЗАВАНТАЖИТИ ІНШИМ


 Трекер:    Зареєстрований   

Завантажити / скачати фільм українською



відео для новачків



 Зареєстрований:   2018-08-17 11:17
 Розмір:   5.5 GB 
 Оцінка фільму:   6.8/10 (Голосів: 10)
   
Sultanidze 
Новенький


З нами з: 21.09.14
Востаннє: 18.08.18
Повідомлень: 2

2018-08-12 17:46  
Англійська звукова доріжка неадекватна, треба б замінити, або видалити з опису роздачі.
ukr_anonymous 
Попереджень: 1
Попереджень: 1 


З нами з: 17.04.18
Востаннє: 17.10.18
Повідомлень: 222

2018-08-16 16:34  
Замінив англійську доріжку.

0mage0 
VIP


З нами з: 06.10.15
Востаннє: 17.10.18
Повідомлень: 366

2018-09-05 08:26  
Смішний фільм, але дратує цей москвофіл раян рейнольдс.
Ваш часовий пояс: GMT + 2 Години

Нова тема   Відповісти