Телепорт / Jumper (2008) 1080p [Open Matte] H.265 2xUkr/Eng | Sub Ukr/Eng

Нові коментарі

Нова тема   Відповісти
Автор Повідомлення
ukr_anonymous 
Забанено
Забанено


З нами з: 17.04.18
Востаннє: 17.11.19
Повідомлень: 233

2018-08-05 03:02  
Телепорт / Jumper (2008) 1080p [Open Matte] H.265 2xUkr/Eng | Sub Ukr/Eng

Телепорт / Jumper (2008) 1080p [Open Matte] H.265 2xUkr/Eng | Sub Ukr/Eng


Жанр: фантастика, бойовик, трилер, пригодницький
Країна: США, Канада



Кінокомпанія: Twentieth Century Fox Film Corporation, Regency Enterprises, New Regency Pictures
Режисер: Даґ Лайман
Актори: Хейден Крістенсен / Hayden Christensen, Джеймі Белл / Jamie Bell, Рейчел Білсон / Rachel Bilson, Дайeн Лeйн / Diane Lane, Семюель Л. Джексон / Samuel L. Jackson та інші

Сюжет:
Підліток з неблагополучного району Девід Райс завжди вважав себе звичайним парубком, поки одного дня він не дізнався, що може переміщуватися у просторі. Нові здібності відкрили перед ним весь світ. Він може побувати в Нью-Йорку і Токіо, відвідати античні розвалини в Римі, побачити "дах світу" з гори Еверест, побачити 20 світанків і 20 заходів. І все — в один день. Тепер йому не потрібні гроші — він може узяти скільки хоче. Проте воднораз він виявляє, що став мішенню...


Тривалість: 01:28:20
Якість:
Відео:
кодек: H.265 (HEVC)
розмір кадру: 1920 х 1080
бітрейт: 9 081 кб/с
бітова глибина: 10 біт
Увага! Перед завантаженням переконайтесь, що ваш пристрій відтворення (та/або ПЗ) підтримує H.265 (HEVC)

Аудіо # 1:
мова: українська
переклад: професійний дубльований
кодек: 5.1
бітрейт: 448 кб/с

Аудіо # 2:
мова: українська
переклад: двоголосий закадровий
кодек: 2.0
бітрейт: 192 кб/с

Аудіо # 3:
мова: англійська
переклад: оригінал
кодек: 5.1
бітрейт: 448 кб/с

Субтитри:
мова: українська (Forced, Full)
тип: програмні (м'які)
формат: *.srt

Субтитри:
мова: англійська (Full)
тип: програмні (м'які)
формат: *.srt
Info
Код:
General
Unique ID                                : 288701613913627759259911514828582874790 (0xD931E887D9CA4EAC769198D79EBAEEA6)
Complete name                            : E:\video\Jumper (2008) 1080p H.265 [2xUKR_ENG].
Format                                   :
Format version                           : Version 4 / Version 2
File size                                : 6.28 GiB
Duration                                 : 1 h 42 min
Overall bit rate                         : 8 757 kb/s
Movie name                               : Jumper (2008)
Encoded date                             : UTC 2018-08-04 22:31:16
Writing application                      : v20.0.0 ('I Am The Sun') 32-bit
Writing library                          : libebml v1.3.5 + v1.4.8
Cover                                    : Yes
Attachments                              : Cover.jpg

Video
ID                                       : 1
Format                                   : HEVC
Format/Info                              : High Efficiency Video Coding
Format profile                           : Main [email protected]@High
Codec ID                                 : V_MPEGH/ISO/HEVC
Duration                                 : 1 h 28 min
Bit rate                                 : 9 081 kb/s
Width                                    : 1 920 pixels
Height                                   : 1 080 pixels
Display aspect ratio                     : 16:9
Frame rate mode                          : Constant
Frame rate                               : 23.976 (24000/1001) FPS
Color space                              : YUV
Chroma subsampling                       : 4:2:0
Bit depth                                : 10 bits
Bits/(Pixel*Frame)                       : 0.183
Stream size                              : 5.60 GiB (89%)
Default                                  : Yes
Forced                                   : No
Color range                              : Limited
Color primaries                          : BT.709
Transfer characteristics                 : BT.709
Matrix coefficients                      : BT.709

Audio #1
ID                                       : 2
Format                                   : AC-3
Format/Info                              : Audio Coding 3
Codec ID                                 : A_AC3
Duration                                 : 1 h 28 min
Bit rate mode                            : Constant
Bit rate                                 : 448 kb/s
Channel(s)                               : 6 channels
Channel positions                        : Front: L C R, Side: L R, LFE
Sampling rate                            : 48.0 kHz
Frame rate                               : 31.250 FPS (1536 SPF)
Bit depth                                : 16 bits
Compression mode                         : Lossy
Stream size                              : 283 MiB (4%)
Title                                    : DUB
Language                                 : Ukrainian
Service kind                             : Complete Main
Default                                  : Yes
Forced                                   : No

Audio #2
ID                                       : 3
Format                                   : AC-3
Format/Info                              : Audio Coding 3
Codec ID                                 : A_AC3
Duration                                 : 1 h 28 min
Bit rate mode                            : Constant
Bit rate                                 : 192 kb/s
Channel(s)                               : 2 channels
Channel positions                        : Front: L R
Sampling rate                            : 48.0 kHz
Frame rate                               : 31.250 FPS (1536 SPF)
Bit depth                                : 16 bits
Compression mode                         : Lossy
Stream size                              : 121 MiB (2%)
Title                                    : ICTV
Language                                 : Ukrainian
Service kind                             : Complete Main
Default                                  : No
Forced                                   : No

Audio #3
ID                                       : 4
Format                                   : AC-3
Format/Info                              : Audio Coding 3
Codec ID                                 : A_AC3
Duration                                 : 1 h 28 min
Bit rate mode                            : Constant
Bit rate                                 : 448 kb/s
Channel(s)                               : 6 channels
Channel positions                        : Front: L C R, Side: L R, LFE
Sampling rate                            : 48.0 kHz
Frame rate                               : 31.250 FPS (1536 SPF)
Bit depth                                : 16 bits
Compression mode                         : Lossy
Stream size                              : 283 MiB (4%)
Title                                    : Original
Language                                 : English
Service kind                             : Complete Main
Default                                  : No
Forced                                   : No

Text #1
ID                                       : 5
Format                                   : UTF-8
Codec ID                                 : S_TEXT/UTF8
Codec ID/Info                            : UTF-8 Plain Text
Duration                                 : 16 min 2 s
Bit rate                                 : 2 b/s
Count of elements                        : 6
Stream size                              : 302 Bytes (0%)
Title                                    : Forced
Language                                 : Ukrainian
Default                                  : Yes
Forced                                   : No

Text #2
ID                                       : 6
Format                                   : UTF-8
Codec ID                                 : S_TEXT/UTF8
Codec ID/Info                            : UTF-8 Plain Text
Duration                                 : 1 h 41 min
Bit rate                                 : 55 b/s
Count of elements                        : 899
Stream size                              : 41.6 KiB (0%)
Title                                    : Full
Language                                 : Ukrainian
Default                                  : No
Forced                                   : No

Text #3
ID                                       : 7
Format                                   : UTF-8
Codec ID                                 : S_TEXT/UTF8
Codec ID/Info                            : UTF-8 Plain Text
Duration                                 : 1 h 41 min
Bit rate                                 : 37 b/s
Count of elements                        : 893
Stream size                              : 28.4 KiB (0%)
Title                                    : Full
Language                                 : English
Default                                  : No
Forced                                   : No

Menu
00:00:00.000                             : :Chapter 01
00:04:21.094                             : :Chapter 02
00:07:52.555                             : :Chapter 03
00:12:35.713                             : :Chapter 04
00:15:08.699                             : :Chapter 05
00:17:46.982                             : :Chapter 06
00:22:51.787                             : :Chapter 07
00:25:51.466                             : :Chapter 08
00:28:57.235                             : :Chapter 09
00:31:46.988                             : :Chapter 10
00:32:57.058                             : :Chapter 11
00:36:18.092                             : :Chapter 12
00:39:52.640                             : :Chapter 13
00:43:21.056                             : :Chapter 14
00:48:47.299                             : :Chapter 15
00:51:01.725                             : :Chapter 16
00:54:48.285                             : :Chapter 17
00:59:15.969                             : :Chapter 18
01:02:11.728                             : :Chapter 19
01:07:32.673                             : :Chapter 20
01:12:45.402                             : :Chapter 21
01:17:04.411                             : :Chapter 22
01:20:39.584                             : :Chapter 23
01:23:49.065                             : :Chapter 24
Скріншоти



Джерело:
Особиста оцінка: 10 - без зайвих вагань рекомендую всім!

ЗАЛИШАЙТЕСЬ ЯКОМОГА ДОВШЕ НА РОЗДАЧІ!
ЗАВАНТАЖИВ САМ - ДАЙ ЗАВАНТАЖИТИ ІНШИМ


 Трекер:    Зареєстрований   

Завантажити / скачати фільм українською



відео для новачків



 Зареєстрований:   2018-08-05 03:02
 Розмір:   6.28 GB 
 Оцінка фільму:   8.3/10 (Голосів: 12)
   
Інші релізи
   Телепорт / Jumper (2008) AVC [Open Matte] 2xUkr/Eng | Sub Ukr/Eng staf777  1 / 0   2.31 GB   2018-10-02 21:54 
   Телепорт / Jumper (2008) Remux 1080p 2xUkr/Eng | Sub Ukr/Eng IronBee  2 / 0   20.15 GB   2018-05-22 11:26 
   Телепорт / Jumper (2008) 1080p 3D [Half OverUnder] Ukr/Eng | Sub Ukr/Eng GEORGKys  0 / 0   8.14 GB   2016-02-23 21:36 
   Телепорт / Jumper (2008) 1080p Ukr/Eng | Sub Ukr/Eng HI-FI SOUND  1 / 0   7.46 GB   2015-03-11 21:27 
   Телепорт / Jumper (2008) [Open Matte] 2xUkr/Eng | Sub Ukr/Eng omm  4 / 0   1.85 GB   2014-08-17 19:29 
   Телепорт / Jumper (2008) 2xUkr/Eng | Ukr/Eng karvai0  4 / 0   1.82 GB   2012-07-04 01:00 
   Телепорт / Jumper (2008) 720 Ukr/Eng | Ukr/Eng Гірський Кришталь  2 / 0   4.36 GB   2011-03-21 19:00 
   Телепорт / Jumper (2008) MutuLI  2 / 0   1.46 GB   2010-03-31 20:10 
Ваш часовий пояс: GMT + 2 Години

Нова тема   Відповісти