Хто в домі тато / Daddy's Home (2015) Remux 1080p Ukr/Eng | Sub Eng

Нові коментарі

Нова тема   Відповісти
Останній раз роздавалося SK1974 (2021-04-12)
Автор Повідомлення
Devil_my_cry 
Частий відвідувач


З нами з: 26.06.10
Востаннє: 09.06.20
Повідомлень: 43

2018-08-04 20:41  
Хто в домі тато / Daddy's Home (2015) Remux 1080p Ukr/Eng | Sub Eng

Хто в домі тато / Daddy's Home (2015) Remux 1080p Ukr/Eng | Sub Eng


Жанр: комедія
Країна: США



Кінокомпанія: Gary Sanchez Productions, Good Universe, Paramount Pictures
Режисер: Шон Андерс, Джон Морріс
Актори: Вілл Феррелл, Марк Уолберг, Лінда Карделліні, Алессандра Амброзіо, Томас Хейден Черч, ДжоАнна Уортем

Сюжет:
Бред (Вілл Феррелл) – тихий і скромний чоловік. Усіма силами він намагається стати гарним батьком Ділану та Меган, дітям своєї дружини Сари (Лінда Карделліні) від першого шлюбу. Здається, що це в нього виходить. Але свої корективи вносить приїзд справжнього батька дітей Дасті Майрона (Марк Волберг). Щоб завоювати увагу дітлахів, ці двоє ладні зі шкіри лізти. Ось тільки чи дадуть такі зусилля результат, поки не зрозуміло.


Тривалість: 01:36:02
Якість: Remux
Відео:
кодек:
розмір кадру: 1920 х 1080p
бітрейт: 28.3 Мб/с

Аудіо # 1:
мова: українська
переклад: професійний дубльований
кодек: 5.1
бітрейт: 448 кб/с

Аудіо # 2:
мова: англійська
переклад: оригінал
кодек: -HD 7.1
бітрейт: 4909 кб/с

Субтитри:
мова: англійська
тип: програмні (м'які)
формат: *.pgs
Info
Video
ID : 1
Format : AVC
Format/Info : Advanced Video Codec
Format profile : [email protected]
Format settings : CABAC / 4 Ref Frames
Format settings, CABAC : Yes
Format settings, ReFrames : 4 frames
Codec ID : V_MPEG4/ISO/AVC
Duration : 1 h 36 min
Bit rate mode : Variable
Bit rate : 28.3 Mb/s
Maximum bit rate : 30.4 Mb/s
Width : 1 920 pixels
Height : 1 080 pixels
Display aspect ratio : 16:9
Frame rate mode : Constant
Frame rate : 23.976 (24000/1001) FPS
Color space : YUV
Chroma subsampling : 4:2:0
Bit depth : 8 bits
Scan type : Progressive
Bits/(Pixel*Frame) : 0.570
Stream size : 19.0 GiB (84%)
Title : MPERG-4/AVC/
Default : No
Forced : No

Audio #1
ID : 2
Format : AC-3
Format/Info : Audio Coding 3
Codec ID : A_AC3
Duration : 1 h 36 min
Bit rate mode : Constant
Bit rate : 448 kb/s
Channel(s) : 6 channels
Channel positions : Front: L C R, Side: L R, LFE
Sampling rate : 48.0 kHz
Frame rate : 31.250 FPS (1536 SPF)
Bit depth : 16 bits
Compression mode : Lossy
Stream size : 308 MiB (1%)
Title : UA DUB Licence 5.1 ch
Language : Ukrainian
Service kind : Complete Main
Default : No
Forced : No

Audio #2
ID : 3
Format :
Format/Info : Digital Theater Systems
Format profile : X / MA / Core
Codec ID : A_DTS
Duration : 1 h 36 min
Bit rate mode : Variable / Variable / Constant
Bit rate : 4 909 kb/s / 4 909 kb/s / 1 509 kb/s
Channel(s) : Object Based / 8 channels / 6 channels
Channel positions : Object Based / Front: L C R, Side: L R, Back: L R, LFE / Front: L C R, Side: L R, LFE
Sampling rate : / 48.0 kHz / 48.0 kHz
Frame rate : 93.750 FPS (512 SPF)
Bit depth : / 24 bits / 24 bits
Compression mode : / Lossless / Lossy
Stream size : 3.29 GiB (15%)
Title : Original -HD 7.1 ch
Language : English
Default : Yes
Forced : No

Text
ID : 4
Format : PGS
Muxing mode : zlib
Codec ID : S_HDMV/PGS
Codec ID/Info : Picture based subtitle format used on BDs/HD-DVDs
Duration : 1 h 30 min
Bit rate : 67.8 kb/s
Count of elements : 4032
Stream size : 43.9 MiB (0%)
Language : English
Default : Yes
Forced : No
Скріншоти






Джерело: &
Особиста оцінка: 8 - мені сподобалося


Золотий реліз (завантажене не впливає на рейтинг)
 Трекер:    Зареєстрований   

Завантажити / скачати фільм українською



відео для новачків



 Зареєстрований:   2018-08-04 20:41
 Розмір:   22.61 GB 
 Оцінка фільму:   8.4/10 (Голосів: 10)
   
Інші релізи
   Хто в домі тато / Daddy's Home (2015) AngryBirdsUA  12 / 0   1.45 GB   2017-03-08 09:38 
   Хто в домі тато / Daddy's Home (2015) 720p Ukr/Eng | Sub Eng 11FrYkT  4 / 0   4.33 GB   2017-03-08 09:18 
   Хто в домі тато / Daddy's Home (2015) 1080p Ukr/Eng | Sub Eng JustAMan  8 / 0   8.67 GB   2016-04-14 03:45 
Ваш часовий пояс: GMT + 2 Години

Нова тема   Відповісти