Кешбек / Решта / Cashback (2006) 720p Ukr/Eng | Sub Eng

Нові коментарі

Нова тема   Відповісти
Автор Повідомлення
Arch Enemy 
Відео Гуртом - озвучення
Відео Гуртом - озвучення


З нами з: 30.08.12
Востаннє: 21.10.18
Повідомлень: 1552

2018-08-04 00:20  
Кешбек / Решта / Cashback (2006) 720p Ukr/Eng | Sub Eng


альтернативний постер

Вікове обмеження: 18+
Жанр: мелодрама, комедія, еротика
Країна: Великобританія
Прем'єра: 18.05.2006



Кінокомпанія: Left Turn Films, Lipsync Productions, MEDIA Programme of the European Union, Ugly Duckling Films
Режисер: Шон Елліс
Актори: Шон Біггерстаф, Емілія Фокс, Стюарт Гудвін, Майкл Лембурн, Майкл Діксон, Мішель Райан, Еріка Елліс та інші.

Сюжет:
Переживаючи хворобливе розставання з коханою, Бен впадає в безсоння. У вільні 8 годин він починає працювати в нічну зміну в місцевому супермаркеті, де головним завданням обслуговуючого персоналу є «вбити час». Несподівано Бен виявляє в собі незвичайну здатність зупиняти час, що дає поштовх його художньому таланту.

Тривалість: 01:42:03
Якість: (CtrlHD)
Відео:
контейнер:
кодек:
частота кадрів: 23.976 кадрів/сек.
розмір кадру: 1280х544 пікс.
бітрейт: ~7630 кбіт/сек.
бітність: 8 біт.

Аудіо # 1:
мова: українська
озвучення: багатоголосе закадрове
кодек:
кількість каналів: 5.1
бітрейт: 1506 кбіт/сек.
частота: 48000 Гц

Аудіо # 2:
мова: англійська, оригінал
кодек:
кількість каналів: 5.1
бітрейт: 1509 кбіт/сек.
частота: 48000 Гц

Субтитри # 1:
мова: англійська, повні.
формат:SRT
тип: програмні, м'які, внутрішні

Субтитри # 2:
мова: англійська, повні, SDH.
формат: SRT
тип: програмні, м'які, внутрішні
Скріншоти


MI
General
Unique ID : 66806706081232745162396998853059152273 (0x324280EA252C2E6252BECD1F19BC0991)
Complete name : E:\Films\Cashback.2006..720p.
Format :
Format version : Version 4 / Version 2
File size : 7.58 GiB
Duration : 1 h 42 min
Overall bit rate : 10.6 Mb/s
Encoded date : UTC 2018-08-21 15:40:32
Writing application : v25.0.0 ('Prog Noir') 64-bit
Writing library : libebml v1.3.6 + v1.4.9

Video
ID : 1
Format : AVC
Format/Info : Advanced Video Codec
Format profile : [email protected]
Format settings : CABAC / 12 Ref Frames
Format settings, CABAC : Yes
Format settings, ReFrames : 12 frames
Codec ID : V_MPEG4/ISO/AVC
Duration : 1 h 42 min
Bit rate : 7 630 kb/s
Width : 1 280 pixels
Height : 544 pixels
Display aspect ratio : 2.35:1
Frame rate mode : Constant
Frame rate : 23.976 (24000/1001) FPS
Color space : YUV
Chroma subsampling : 4:2:0
Bit depth : 8 bits
Scan type : Progressive
Bits/(Pixel*Frame) : 0.457
Stream size : 5.43 GiB (72%)
Title : Cashback (2006)
Writing library : core 138 r2358kMod 9e941d1
Encoding settings : cabac=1 / ref=12 / deblock=1:-3:-3 / analyse=0x3:0x113 / me=esa / subme=10 / psy=1 / fade_compensate=0.00 / psy_rd=1.05:0.00 / mixed_ref=1 / me_range=16 / chroma_me=1 / trellis=2 / 8x8dct=1 / cqm=0 / deadzone=21,11 / fast_pskip=0 / chroma_qp_offset=-2 / threads=6 / lookahead_threads=1 / sliced_threads=0 / nr=0 / decimate=0 / interlaced=0 / bluray_compat=0 / constrained_intra=0 / bframes=8 / b_pyramid=2 / b_adapt=2 / b_bias=0 / direct=3 / weightb=1 / open_gop=0 / weightp=2 / keyint=250 / keyint_min=23 / scenecut=40 / intra_refresh=0 / rc_lookahead=80 / rc=2pass / mbtree=0 / bitrate=7630 / ratetol=1.0 / qcomp=0.70 / qpmin=0 / qpmax=69 / qpstep=4 / cplxblur=20.0 / qblur=0.5 / vbv_maxrate=20000 / vbv_bufsize=15000 / nal_hrd=none / ip_ratio=1.30 / pb_ratio=1.10 / aq=1:1.00
Language : English
Default : Yes
Forced : Yes

Audio #1
ID : 2
Format :
Format/Info : Digital Theater Systems
Codec ID : A_DTS
Duration : 1 h 42 min
Bit rate mode : Constant
Bit rate : 1 506 kb/s
Channel(s) : 6 channels
Channel positions : Front: L C R, Side: L R, LFE
Sampling rate : 48.0 kHz
Frame rate : 93.750 FPS (512 SPF)
Bit depth : 16 bits
Compression mode : Lossy
Stream size : 1.07 GiB (14%)
Title : AniUA
Language : Ukrainian
Default : Yes
Forced : Yes

Audio #2
ID : 3
Format :
Format/Info : Digital Theater Systems
Codec ID : A_DTS
Duration : 1 h 42 min
Bit rate mode : Constant
Bit rate : 1 509 kb/s
Channel(s) : 6 channels
Channel positions : Front: L C R, Side: L R, LFE
Sampling rate : 48.0 kHz
Frame rate : 93.750 FPS (512 SPF)
Bit depth : 24 bits
Compression mode : Lossy
Stream size : 1.08 GiB (14%)
Title : Original
Language : English
Default : No
Forced : No

Text #1
ID : 4
Format : UTF-8
Codec ID : S_TEXT/UTF8
Codec ID/Info : UTF-8 Plain Text
Duration : 1 h 37 min
Bit rate : 50 b/s
Count of elements : 1054
Stream size : 36.0 KiB (0%)
Title : English
Language : English
Default : No
Forced : No

Text #2
ID : 5
Format : UTF-8
Codec ID : S_TEXT/UTF8
Codec ID/Info : UTF-8 Plain Text
Duration : 1 h 37 min
Bit rate : 53 b/s
Count of elements : 1141
Stream size : 38.0 KiB (0%)
Title : English-SDH
Language : English
Default : No
Forced : No

Menu
00:00:00.000 : en:Chapter 1
00:01:20.747 : en:Chapter 2
00:04:24.639 : en:Chapter 3
00:10:39.973 : en:Chapter 4
00:13:39.152 : en:Chapter 5
00:16:52.678 : en:Chapter 6
00:21:46.305 : en:Chapter 7
00:25:01.500 : en:Chapter 8
00:29:24.763 : en:Chapter 9
00:32:43.503 : en:Chapter 10
00:34:31.236 : en:Chapter 11
00:40:06.362 : en:Chapter 12
00:44:31.419 : en:Chapter 13
00:47:32.308 : en:Chapter 14
00:55:26.823 : en:Chapter 15
00:58:53.780 : en:Chapter 16
01:03:36.229 : en:Chapter 17
01:11:02.467 : en:Chapter 18
01:13:21.355 : en:Chapter 19
01:17:19.802 : en:Chapter 20
01:21:34.973 : en:Chapter 21
01:28:49.908 : en:Chapter 22
01:30:38.683 : en:Chapter 23
01:35:57.752 : en:Chapter 24

Озвучено за фінансової підтримки NemoInFire

Джерело озвучення та релізу: AniUA


Авторський реліз (завантажувати можна без реєстрації)
 Трекер:    Зареєстрований   

Завантажити / скачати фільм українською



відео для новачків



 Зареєстрований:   2018-08-21 19:20
 Розмір:   7.58 GB 
 Оцінка фільму:   9.5/10 (Голосів: 23)
   
Інші релізи
   Кешбек / Решта / Cashback (2006) 1080p Ukr/Eng | Sub Eng IronBee  0 / 0   13.88 GB   2018-09-03 20:25 
   Кешбек / Решта / Cashback (2006) mini 1080p H.265 Ukr/Eng | Sub Eng -Star-Lord-  4 / 0   3.52 GB   2018-08-25 01:46 
   Кешбек / Решта / Cashback (2006) Ukr/Eng Arch Enemy  9 / 0   2.18 GB   2018-08-24 18:55 
kryk-v.ya. 
VIP


З нами з: 14.02.14
Востаннє: 21.10.18
Повідомлень: 620

2018-08-04 13:24  
я дуже поважаю Ваш труд,але скажіть будь-ласка,по яким критеріям Ви обираєте фільми для перекладу?може варто голосування проводити...
-_-В_E_N_D_Е_R-_- 
Забанено
Забанено


З нами з: 11.07.18
Востаннє: 23.08.18
Повідомлень: 547

2018-08-04 15:04  
kryk-v.ya.
Ні не варто, наразі мені все подобається що вони перекладають

Arch Enemy 
Відео Гуртом - озвучення
Відео Гуртом - озвучення


З нами з: 30.08.12
Востаннє: 21.10.18
Повідомлень: 1552

2018-08-04 18:02  
kryk-v.ya. написано:
по яким критеріям Ви обираєте фільми для перекладу?

За грошовими. Wink (1)
За що платять, те й звучимо, хоч то дитячі мультфільми, хоч то криваві жахи, хоч то еротика, тощо))).

kryk-v.ya. написано:
може варто голосування проводити...

Та вже раз провели за "Walking Dead")))

kryk-v.ya. 
VIP


З нами з: 14.02.14
Востаннє: 21.10.18
Повідомлень: 620

2018-08-04 18:08  
Arch Enemy
ясно на замовлення...питань більше немає...

RobertMenus 
Відео Гуртом - субтитрування
Відео Гуртом - субтитрування


З нами з: 08.03.11
Востаннє: 21.10.18
Повідомлень: 144

2018-08-07 11:08  
фільм класний. сподіваюсь, озвучка не підкачає
AnnaBogdan 
Свій


З нами з: 16.10.16
Востаннє: 21.10.18
Повідомлень: 86

2018-08-09 00:05  
давно дивилася, сподобався.
bot 
робот


З нами з: 30.09.07
Востаннє: 26.05.05
Повідомлень: 19984

2018-08-21 19:17  
Тему перенесено з Анонси релізів до форуму Фільми в HD


Arch Enemy

-_-В_E_N_D_Е_R-_- 
Забанено
Забанено


З нами з: 11.07.18
Востаннє: 23.08.18
Повідомлень: 547

2018-08-21 19:21  
Ремукс з дтс-хд буде?
Arch Enemy 
Відео Гуртом - озвучення
Відео Гуртом - озвучення


З нами з: 30.08.12
Востаннє: 21.10.18
Повідомлень: 1552

2018-08-21 19:23  
Ось і реліз.
Усім приємного перегляду.

Додано через 2 хвилини 6 секунд:

-_-В_E_N_D_Е_R-_- написано:
Ремукс з дтс-хд буде?

Ні, хіба що хтось сам перезбере.

-_-В_E_N_D_Е_R-_- 
Забанено
Забанено


З нами з: 11.07.18
Востаннє: 23.08.18
Повідомлень: 547

2018-08-21 19:27  
Arch Enemy написано:
Ні, хіба що хтось сам перезбере.

Можеш скинути чисті гольоси?

Arch Enemy 
Відео Гуртом - озвучення
Відео Гуртом - озвучення


З нами з: 30.08.12
Востаннє: 21.10.18
Повідомлень: 1552

2018-08-21 19:33  
-_-В_E_N_D_Е_R-_- написано:
Можеш скинути чисті гольоси?

Ні, доріжка вже зібрана, обробляв звук не я + там певні нюанси по зведенню, тому навряд чи її дадуть.
Та й на мою думку дтс в 1,5 Мбіт буде вдосталь для ремукса.

EvGaS 
Відео Гуртом - субтитрування
Відео Гуртом - субтитрування


З нами з: 27.02.12
Востаннє: 22.10.18
Повідомлень: 5001

2018-08-22 08:12  
Щось кіно мене розчарувало. Очікував чогось трохи більшого за еротику, запаковану в обгортку з витонченої творчості та комедії. Тобто, кіно непогане, та як без неї поглянути, то й особливо стане ні на що, все крутиться навколо неї.

Ну й 18+ тут все ж дещо задрали рейтинга — воно десь на 16+ для юнацької та молодіжної аудиторії, подумаєш, голі бігають, наче це настільки страшно, щоб дати максималку цензу Rolleyes (1)

Додано через 4 хвилини 5 секунд:

В сенсі, рейтинг кіна штучно завищений, мабуть, так вважали що буде популярнішим, і схоже що спрацювало.

kuts-vv 
Поважний учасник


З нами з: 11.12.11
Востаннє: 17.10.18
Повідомлень: 178

2018-08-22 21:45  
Фільм прикольний. Вже давно дивився. Але не знаю, чи варто вдруге дивитися.
Форкуш 
VIP


З нами з: 03.02.10
Востаннє: 21.10.18
Повідомлень: 2221

2018-08-24 09:26  
ніпрошо
hetzendorf 
Відео Гуртом - підтримка та поширення
Відео Гуртом - підтримка та поширення


З нами з: 23.07.15
Востаннє: 22.10.18
Повідомлень: 1311

2018-09-02 00:27  
Є дещиця кумедних моментів, але в цілому дуже нудно й сюжет чи не найпоширеніший — за піхвостраждання молодих чумаданів. Навіть раз подивитися забагато буде. Але ж у декого аж так тисне кишеню, що на озвучку цієї лабуди відвалює @[email protected]
3/10
EvGaS написано:
Очікував чогось трохи більшого за еротику, запаковану в обгортку з витонченої творчості та комедії. Тобто, кіно непогане, та як без неї поглянути, то й особливо стане ні на що, все крутиться навколо неї.

Та й еротики тієї — кіт наплакав. Ну щоправда окрім нечастого оголення цицьок аж 1 (один) раз показали голу пуцьку (sic!), що за сучасними стандартами візуального мистецтва вважається чимось ойойой, щось на межі з порнографією!

Додано через 7 хвилин 48 секунд:

EvGaS написано:
воно десь на 16+ для юнацької та молодіжної аудиторії, подумаєш, голі бігають, наче це настільки страшно

Як це «не страшно»? Ти уявляєш собі, скільки юних педованів раптом жінками захопляться? Це ж мінус сотні-тисячі адептів гомосексуалізму, які, як відомо, не розмножуються, а отже — потребують свіжої крові!

Ваш часовий пояс: GMT + 2 Години

Нова тема   Відповісти