Баарія / Baarìa (2009) 720p Ukr/Ita

Нові коментарі

Нова тема   Відповісти
Автор Повідомлення
Anonymous 







2018-08-03 21:35  
Баарія / Baarìa (2009) 720p Ukr/Ita

Баарія / Baarìa (2009) 720p Ukr/Ita


Жанр: комедія, драма
Країна: Італія, Франція



Кінокомпанія: Medusa Film, Quinta Communications, Regione Siciliana
Режисер: Джузеппе Торнаторе
Актори: Франческо Шіана, Марґарет Маде, Ліна Састрі та інші

Сюжет:
Фільм, що розповідає про життя трьох поколінь однієї сицилійської родини в містечку Багерія.


Тривалість: 02:30:49
Якість: 720p
Відео:
кодек:
розмір кадру: 1280х544
бітрейт: 7 570 кб/с

Аудіо # 1:
мова: українська
переклад: багатоголосий закадровий
кодек: 2.0
бітрейт: 192 кб/с

Аудіо # 2:
мова: італійська
переклад: оригінал
кодек: 5.1
бітрейт: 1 509 кб/с
Info
General
Unique ID : 241968751987359304121605209502335500971 (0xB6097C8BA5AB8072B55192D974AA02AB)
Format :
Format version : Version 4 / Version 2
File size : 9.76 GiB
Duration : 2 h 30 min
Overall bit rate : 9 266 kb/s
Encoded date : UTC 2018-08-03 18:26:56
Writing application : v6.1.0 ('Old Devil') built on Mar 4 2013 09:10:42
Writing library : libebml v1.3.0 + v1.4.0

Video
ID : 1
Format : AVC
Format/Info : Advanced Video Codec
Format profile : [email protected]
Format settings : CABAC / 7 Ref Frames
Format settings, CABAC : Yes
Format settings, ReFrames : 7 frames
Codec ID : V_MPEG4/ISO/AVC
Duration : 2 h 30 min
Bit rate : 7 570 kb/s
Width : 1 280 pixels
Height : 544 pixels
Display aspect ratio : 2.35:1
Frame rate mode : Constant
Frame rate : 23.976 FPS
Color space : YUV
Chroma subsampling : 4:2:0
Bit depth : 8 bits
Scan type : Progressive
Bits/(Pixel*Frame) : 0.453
Stream size : 7.78 GiB (80%)
Title : Release for HDCLUB
Writing library : core 116 r2074 2641b9e
Encoding settings : cabac=1 / ref=7 / deblock=1:-3:-3 / analyse=0x3:0x113 / me=umh / subme=10 / psy=1 / psy_rd=1.05:0.07 / mixed_ref=1 / me_range=32 / chroma_me=1 / trellis=2 / 8x8dct=1 / cqm=0 / deadzone=21,11 / fast_pskip=0 / chroma_qp_offset=-3 / threads=12 / sliced_threads=0 / nr=0 / decimate=0 / interlaced=0 / bluray_compat=0 / constrained_intra=0 / bframes=10 / b_pyramid=2 / b_adapt=2 / b_bias=0 / direct=3 / weightb=1 / open_gop=0 / weightp=2 / keyint=250 / keyint_min=23 / scenecut=40 / intra_refresh=0 / rc_lookahead=40 / rc=2pass / mbtree=0 / bitrate=7570 / ratetol=1.0 / qcomp=0.60 / qpmin=0 / qpmax=69 / qpstep=4 / cplxblur=20.0 / qblur=0.5 / vbv_maxrate=50000 / vbv_bufsize=62500 / nal_hrd=none / ip_ratio=1.40 / pb_ratio=1.30 / aq=1:0.70
Language : English
Default : Yes
Forced : No

Audio #1
ID : 2
Format : AC-3
Format/Info : Audio Coding 3
Codec ID : A_AC3
Duration : 2 h 30 min
Bit rate mode : Constant
Bit rate : 192 kb/s
Channel(s) : 2 channels
Channel positions : Front: L R
Sampling rate : 48.0 kHz
Frame rate : 31.250 FPS (1536 SPF)
Bit depth : 16 bits
Compression mode : Lossy
Stream size : 207 MiB (2%)
Title : UKR (Cine+)
Language : Ukrainian
Service kind : Complete Main
Default : Yes
Forced : Yes

Audio #2
ID : 3
Format :
Format/Info : Digital Theater Systems
Codec ID : A_DTS
Duration : 2 h 30 min
Bit rate mode : Constant
Bit rate : 1 509 kb/s
Channel(s) : 6 channels
Channel positions : Front: L C R, Side: L R, LFE
Sampling rate : 48.0 kHz
Frame rate : 93.750 FPS (512 SPF)
Bit depth : 24 bits
Compression mode : Lossy
Stream size : 1.59 GiB (16%)
Title : 3/2+1
Language : Italian
Default : No
Forced : No

Menu
00:00:00.000 : en:Chapter 00
00:06:41.984 : en:Chapter 01
00:12:40.926 : en:Chapter 02
00:18:27.272 : en:Chapter 03
00:23:22.109 : en:Chapter 04
00:35:34.298 : en:Chapter 05
00:42:10.611 : en:Chapter 06
00:48:18.770 : en:Chapter 07
01:00:32.128 : en:Chapter 08
01:13:53.011 : en:Chapter 09
01:19:35.937 : en:Chapter 10
01:25:15.193 : en:Chapter 11
01:36:54.058 : en:Chapter 12
01:51:42.862 : en:Chapter 13
01:56:12.882 : en:Chapter 14
02:06:30.583 : en:Chapter 15
02:17:02.380 : en:Chapter 16
02:23:12.166 : en:Chapter 17
Скріншоти






За звукову доріжку подяка панам Sando7 та krigg070
Особиста подяка пану denixx за надану матеріальну допомогу на підтримку цього і майбутніх релізів.
Джерело:


 Трекер:    Зареєстрований   

Завантажити / скачати фільм українською



відео для новачків



 Зареєстрований:   2018-08-03 21:35
 Розмір:   9.76 GB 
 Оцінка фільму:   10/10 (Голосів: 2)
   
Інші релізи
   Баарія / Baarìa (2009) AVC Ukr/Ita staf777  4 / 0   2.45 GB   2018-10-20 23:13 
   Баарія / Baarìa (2009) Ukr/Ita krigg070  3 / 0   2.06 GB   2017-12-02 21:55 
waldi-hurtom 
VIP


З нами з: 07.10.12
Востаннє: 19.04.19
Повідомлень: 952

2019-03-29 22:35  
Розкішний фільм! Вже вдруге дивилися, бо багато підзабулося. Як документальна фотографія часу, забобони, звичаї, стосунки, суспільство, але як зроблено - просто насолода. 10 балів. Дякую за реліз.
Ваш часовий пояс: GMT + 2 Години

Нова тема   Відповісти