Аризонська мрія / Arizona Dream (1993) 1080p Ukr/Eng | Sub Ukr/Eng

Нові коментарі

Нова тема   Відповісти
Автор Повідомлення
Anonymous 







2018-08-03 19:43  
Аризонська мрія / Arizona Dream (1993) 1080p Ukr/Eng | Sub Ukr/Eng

Аризонська мрія / Arizona Dream (1993) 1080p Ukr/Eng | Sub Ukr/Eng


Жанр: фентезі, драма, мелодрама, комедія
Країна: США, Франція



Кінокомпанія: Canal+, Constellation, Hachette Première
Режисер: Емір Кустуріца
Актори: Джонні Деп, Джеррі Левіс, Фей Данавей, Лілі Тейлор, Вінсент Ґалло, Пауліна Порічкова, Майкл Джей Поллард, Емір Кустуріца

Сюжет:
Дядечко Лео звик домагатися свого. А хоче він, щоб племінник Аксель став боярином на його весіллі і працював у його фірмі з продажу «кадилаків». Аксель же нічого не хоче. Він вважає за краще проводити час в компанії своєї коханої, місцевої божевільної Елейн, і її падчерки Ґрейс, і разом з ними віддаватися мріям. Закохана Елейн мріє літати як птах. Знехтувана Грейс мріє перевтілитися в черепаху. Аксель мріє про засніжені простори Аляски, де мисливці-ескімоси ловлять стрілозубих палтусів. Мріє навіть дядечко Лео: побудувати б цілу гору з «кадилаків» і забратися б по ній на Місяць....


Тривалість: 02:20:23
Якість: 1080p
Відео:
кодек:
розмір кадру: 1920х1040
бітрейт: 11,7 Мб/с

Аудіо # 1:
мова: українська
переклад: багатоголосий закадровий
кодек: 2.0
бітрейт: 192 кб/с

Аудіо # 2:
мова: англійська
переклад: оригінал
кодек: 2.0
бітрейт: 1509 кб/с

Субтитри # 1:
мова: українська
тип: програмні (м'які)
формат: *.srt
джерело субтитрів: DVD, обробка субтитрів: ZtaZ, редагування і синхронізація: w2958l

Субтитри # 2:
мова: англійська
тип: програмні (м'які)
формат: *.srt
Info
General
Unique ID : 241271635418946532617880267325145819776 (0xB5833A0B882AF5F69D79B7EB7D372A80)
Format :
Format version : Version 4 / Version 2
File size : 13.2 GiB
Duration : 2 h 20 min
Overall bit rate : 13.4 Mb/s
Encoded date : UTC 2018-08-03 17:27:44
Writing application : v6.1.0 ('Old Devil') built on Mar 4 2013 09:10:42
Writing library : libebml v1.3.0 + v1.4.0

Video
ID : 1
Format : AVC
Format/Info : Advanced Video Codec
Format profile : [email protected]
Format settings : CABAC / 4 Ref Frames
Format settings, CABAC : Yes
Format settings, ReFrames : 4 frames
Codec ID : V_MPEG4/ISO/AVC
Duration : 2 h 20 min
Bit rate : 11.7 Mb/s
Width : 1 920 pixels
Height : 1 040 pixels
Display aspect ratio : 1.85:1
Frame rate mode : Constant
Frame rate : 23.976 FPS
Color space : YUV
Chroma subsampling : 4:2:0
Bit depth : 8 bits
Scan type : Progressive
Bits/(Pixel*Frame) : 0.245
Stream size : 11.3 GiB (85%)
Writing library : core 114 r1924 08d04a4
Encoding settings : cabac=1 / ref=4 / deblock=1:-3:-3 / analyse=0x3:0x113 / me=umh / subme=10 / psy=1 / psy_rd=1.10:0.15 / mixed_ref=1 / me_range=48 / chroma_me=1 / trellis=2 / 8x8dct=1 / cqm=0 / deadzone=21,11 / fast_pskip=0 / chroma_qp_offset=-2 / threads=12 / sliced_threads=0 / nr=0 / decimate=1 / interlaced=0 / constrained_intra=0 / bframes=6 / b_pyramid=2 / b_adapt=2 / b_bias=0 / direct=3 / weightb=1 / open_gop=0 / weightp=2 / keyint=250 / keyint_min=23 / scenecut=40 / intra_refresh=0 / rc_lookahead=60 / rc=2pass / mbtree=1 / bitrate=11743 / ratetol=1.0 / qcomp=0.70 / qpmin=0 / qpmax=69 / qpstep=4 / cplxblur=20.0 / qblur=0.5 / vbv_maxrate=40000 / vbv_bufsize=30000 / nal_hrd=none / ip_ratio=1.40 / aq=1:0.90
Language : English
Default : No
Forced : No

Audio #1
ID : 2
Format : AC-3
Format/Info : Audio Coding 3
Codec ID : A_AC3
Duration : 2 h 20 min
Bit rate mode : Constant
Bit rate : 192 kb/s
Channel(s) : 2 channels
Channel positions : Front: L R
Sampling rate : 48.0 kHz
Frame rate : 31.250 FPS (1536 SPF)
Bit depth : 16 bits
Compression mode : Lossy
Stream size : 193 MiB (1%)
Title : UKR (НЛО-ТБ)
Language : Ukrainian
Service kind : Complete Main
Default : Yes
Forced : Yes

Audio #2
ID : 3
Format :
Format/Info : Digital Theater Systems
Codec ID : A_DTS
Duration : 2 h 20 min
Bit rate mode : Constant
Bit rate : 1 509 kb/s
Channel(s) : 2 channels
Channel positions : Front: L R
Sampling rate : 48.0 kHz
Frame rate : 93.750 FPS (512 SPF)
Bit depth : 24 bits
Compression mode : Lossy
Stream size : 1.48 GiB (11%)
Language : English
Default : No
Forced : No

Text #1
ID : 4
Format : UTF-8
Codec ID : S_TEXT/UTF8
Codec ID/Info : UTF-8 Plain Text
Language : Ukrainian
Default : No
Forced : No

Text #2
ID : 5
Format : UTF-8
Codec ID : S_TEXT/UTF8
Codec ID/Info : UTF-8 Plain Text
Language : English
Default : No
Forced : No
Скріншоти






За українську доріжку подяка п. Bohdan237 та Arsenfpu
Особиста подяка пану denixx за надану матеріальну допомогу на підтримку цього і майбутніх релізів.
Джерело:


Срібний реліз (на рейтинг впливає 50% завантаженого)
 Трекер:    Зареєстрований   

Завантажити / скачати фільм українською



відео для новачків



 Зареєстрований:   2018-08-03 19:43
 Розмір:   13.18 GB 
 Оцінка фільму:   10/10 (Голосів: 2)
   
Ваш часовий пояс: GMT + 2 Години

Нова тема   Відповісти