Пташині пригоди / PLOEY - You Never Fly Alone (2018)

Нові коментарі

Нова тема   Відповісти
Автор Повідомлення
Anonymous 







2018-08-03 12:23  
Пташині пригоди / PLOEY - You Never Fly Alone (2018)



Жанр: анімаційний, пригодницький, сімейний
Країна: Ісландія, Бельгія



Кінокомпанія: GunHil, Cyborn
Режисер: Аудні Аусгейрссон
Актори: Джемі Орам, Харріет Перрінг, Іен Стюарт Робертсон, Річард Віллс-Коттон, Торунн Ерна Клаузен, Деббі Чейзен

Сюжет:
Мале пташеня ще не встигло навчитися літати, аж вже прийшов час міграції. Йому доведеться пережити арктичну зиму, перемогти лютих ворогів і стати сильним, щоб возз'єднатися зі своєю сім'єю, коли прийде весна.
Офіційний український трейлер:


Вікова категорія: 6+

Тривалість: 01:22:29*
Якість:

Відео:
кодек:
розмір кадру: 720х304
бітрейт: 2131 кб/с
примітка: присутній один напис (назва) російською, решта відеоряду (заставки, титри) - оригінальна
*на початку було обрізано якусь російську заставку (4,625 с)

Аудіо:
мова: українська
переклад: професійний дубльований | студія Tretyakoff production
кодек: 2.0 (стерео)
бітрейт: 192 кб/с
Info
Код:
General
Complete name               : PLOEY - You Never Fly Alone (2018) [Ukr] [Hurtom].avi
Format                      : AVI
Format/Info                 : Audio Video Interleave
File size                   : 1.34 GiB
Duration                    : 1 h 22 min
Overall bit rate            : 2 332 kb/s
Movie name                  : Пташині пригоди / PLOEY - You Never Fly Alone (2018) [Ukr] [Hurtom]
Genre                       : анімаційний, пригодницький, сімейний
Recorded date               : 03.08.2018
Writing application         : VirtualDubModUkr 1.5.10.2 (build 2542/release)
Writing library             : VirtualDubMod build 2542/release
Comment                     : https://toloka.to/t93932

Video
ID                          : 0
Format                      : MPEG-4 Visual
Format profile              : Advanced [email protected]
Format settings             : BVOP1 / Custom Matrix
Format settings, BVOP       : 1
Format settings, QPel       : No
Format settings, GMC        : No warppoints
Format settings, Matrix     : Custom
Codec ID                    :
Codec ID/Hint               :
Duration                    : 1 h 22 min
Bit rate                    : 2 131 kb/s
Width                       : 720 pixels
Height                      : 304 pixels
Display aspect ratio        : 2.35:1
Frame rate                  : 24.000 FPS
Original frame rate         : 24.005 FPS
Color space                 : YUV
Chroma subsampling          : 4:2:0
Bit depth                   : 8 bits
Scan type                   : Progressive
Compression mode            : Lossy
Bits/(Pixel*Frame)          : 0.406
Stream size                 : 1.23 GiB (91%)
Writing library             : 73

Audio
ID                          : 1
Format                      : AC-3
Format/Info                 : Audio Coding 3
Codec ID                    : 2000
Duration                    : 1 h 22 min
Bit rate mode               : Constant
Bit rate                    : 192 kb/s
Channel(s)                  : 2 channels
Sampling rate               : 48.0 kHz
Compression mode            : Lossy
Stream size                 : 113 MiB (8%)
Alignment                   : Split accross interleaves
Interleave, duration        : 42  ms (1.00 video frame)
Interleave, preload duratio : 500  ms
Title                       : UKR DUB [Tretyakoff production, stereo]




Підтримати купівлю інших фільмів можна тут.


Джерело: &
Подяка AngryBirdsUA та Hanway'ю за українську доріжку.


 Трекер:    Зареєстрований   

Завантажити / скачати мультфільм українською



відео для новачків



 Зареєстрований:   2018-08-03 12:37
 Розмір:   1.34 GB 
 Оцінка мультфільму:   8.9/10 (Голосів: 24)
   
Ваш часовий пояс: GMT + 2 Години

Нова тема   Відповісти