Людина з кіноапаратом (1929) 720p

Нові коментарі

Нова тема   Відповісти
Автор Повідомлення
Anonymous 







2018-08-02 20:59  
Людина з кіноапаратом (1929) 720p

Людина з кіноапаратом (1929) 720p


Жанр: документальний
Країна: УРСР



Кінокомпанія: Кінофабрика ВУФКУ
Режисер: Дзиґа Вертов
Актори: Народ України

Сюжет:
«Людина з кіноапаратом» — один із найголовніших маніфестів світового кіноавангарду. Згідно з естетичними настановами Вертова, фільм знімався без сценарію. У «Людина з кіноапаратом» Вертов реалізував багаторічні експерименти та теоретичні напрацювання у сфері операторського мистецтва та монтажу, перетворивши фільм на методологічний посібник з кінематографії для майбутніх поколінь режисерів. Камера талановитого оператора Михайла Кауфмана фіксує строкате життя українських мегаполісів — Одеси, Харкова та Києва доби непу.


Тривалість: 01:06:47
Якість: 720р - Титри московською
Відео:
кодек:
розмір кадру: 960x720
бітрейт: 9741 кб/с

Аудіо:
мова: відсутня
переклад: оригінал
музика: Alloy Orchestra
кодек: 2.0
бітрейт: 768 кб/с
Info
General
Unique ID : 254821967016964009122821421706568855549 (0xBFB4ECF923A3B4104D279FADC41CEFFD)
Complete name : E:\Для Ріпів\Man with a Movie Camera 720p.
Format :
Format version : Version 4 / Version 2
File size : 4.90 GiB
Duration : 1 h 6 min
Overall bit rate mode : Variable
Overall bit rate : 10.5 Mb/s
Movie name : Людина з кіноапаратом
Encoded date : UTC 2018-08-02 17:31:12
Writing application : v24.0.0 ('Beyond The Pale') 64-bit
Writing library : libebml v1.3.6 + v1.4.9
Attachments : poster.jpg

Video
ID : 1
Format : AVC
Format/Info : Advanced Video Codec
Format profile : [email protected]
Format settings, CABAC : Yes
Format settings, RefFrames : 9 frames
Codec ID : V_MPEG4/ISO/AVC
Duration : 1 h 6 min
Bit rate mode : Variable
Bit rate : 9 741 kb/s
Maximum bit rate : 18.0 Mb/s
Width : 960 pixels
Height : 720 pixels
Display aspect ratio : 4:3
Frame rate mode : Constant
Frame rate : 24.000 FPS
Standard : Component
Color space : YUV
Chroma subsampling : 4:2:0
Bit depth : 8 bits
Scan type : Progressive
Bits/(Pixel*Frame) : 0.587
Stream size : 4.54 GiB (93%)
Default : Yes
Forced : No
Color range : Limited
Color primaries : BT.709
Transfer characteristics : BT.709
Matrix coefficients : BT.709

Audio
ID : 2
Format :
Format/Info : Digital Theater Systems
Mode : 16
Format settings, Endianness : Big
Codec ID : A_DTS
Duration : 1 h 6 min
Bit rate mode : Constant
Bit rate : 768 kb/s
Channel(s) : 2 channels
Channel positions : Front: L R
Sampling rate : 48.0 kHz
Frame rate : 93.750 FPS (512 SPF)
Bit depth : 16 bits
Compression mode : Lossy
Stream size : 367 MiB (7%)
Title : Alloy Orchestra
Default : Yes
Forced : No

Menu
00:01:03.000 : ru:Начальные титры
00:02:16.333 : ru:Вступление
00:05:04.375 : ru:Часть 1
00:12:56.583 : ru:Часть 2
00:23:34.375 : ru:Часть 3
00:33:21.958 : ru:Часть 4
00:42:57.958 : ru:Часть 5
00:54:43.833 : ru:Часть 6
Скріншоти













Джерело:
Особиста оцінка: 10 - без зайвих вагань рекомендую всім!


Золотий реліз (завантажене не впливає на рейтинг)
 Трекер:    Зареєстрований   

Завантажити / скачати фільм українською



відео для новачків



 Зареєстрований:   2018-08-02 20:59
 Розмір:   4.9 GB 
 Оцінка фільму:   7.4/10 (Голосів: 7)
   
-_-В_E_N_D_Е_R-_- 
Забанено
Забанено


З нами з: 11.07.18
Востаннє: 23.08.18
Повідомлень: 528

2018-08-02 21:07  
На ті московські титри потрібно зробити українські
bot 
робот


З нами з: 30.09.07
Востаннє: 26.05.05
Повідомлень: 22100

2018-08-02 22:44  
Тему перенесено з Фільми в HD до форуму Українські наукові документальні фільми


11FrYkT

Ваш часовий пояс: GMT + 2 Години

Нова тема   Відповісти