Грифко проти прибульців (Space Chicken) / Condorito: La Película (2017)

Нові коментарі

Нова тема   Відповісти
Автор Повідомлення
Anonymous 







2018-08-02 16:11  
Грифко проти прибульців / Space Chicken / Condorito: La Película (2017)

Грифко проти прибульців (Space Chicken) / Condorito: La Película (2017)
Альтернативний постер:



Жанр: анімаційний, фантастика, комедія, пригодницький, сімейний
Країна: Перу



Кінокомпанія: Pajarraco Film
Режисер: Алекс Оррелл, Едуардо Шульдт
Актори: Омар Чапарро, Джессіка Седіел, Крістіан де ла Фуенте, Коко Легран, Матіас Бривіо, Франсіско Кольменеро

Сюжет:
Злі іншопланетяни задумали підкорити нашу планету завдяки могутньому амулетові, за допомогою якого можна підкорити своїй волі будь-яку розумну істоту. На Землі готується рятувальна операція, але є одна проблема. Виконати місію може тільки той, чий інтелект дуже малий і не схильний до дії амулета. Де ж знайти такого дурника? Хіба що послати в космос одного невдалого кондора Грифка, що живе серед людей. Хоч він і псує дев'ять справ з десяти, але зараз, схоже, його «курячі мізки» стануть у пригоді.
Офіційний український трейлер:


Вікова категорія: 6+
Тривалість: 01:28:43
Якість:
Відео:
кодек:
розмір кадру: 720х384
бітрейт: 1598 кб/с

Аудіо:
мова: українська
переклад: професійний дубльований | студія Tretyakoff production
кодек: 2.0 (стерео)
бітрейт: 192 кб/с
Інформація про дубляж:
Фільм дубльовано творчим колективом студії звукозапису Tretyakoff production на замовлення компанії "Своє кіно".
Режисер дубляжу: Володимир Третьяков
Звукорежисер перезапису: Фарід Мбайдін / Farid Mbaidin
Ролі дублювали: Михайло "Дзідзьо" Хома, Павло Сушко, Анастасія Зиновенко, Олена Узлюк, Дмитро Бузинський, Аліса Гур'єва, Михайло Тишин та інші.


Info
Код:
General
Complete name               : Condorito. La Pelicula (2017) [Ukr] [Hurtom].avi
Format                      : AVI
Format/Info                 : Audio Video Interleave
File size                   : 1.12 GiB
Duration                    : 1 h 28 min
Overall bit rate            : 1 800 kb/s
Movie name                  : Грифко проти прибульців / Space Chicken / Condorito: La Pelicula (2017) [Ukr] [Hurtom]
Genre                       : анімаційний, фантастика, комедія, пригодницький, сімейний
Recorded date               : 02.08.2018
Writing application         : VirtualDubModUkr 1.5.10.2 (build 2542/release)
Writing library             : VirtualDubMod build 2542/release
Comment                     : https://toloka.to/t93911

Video
ID                          : 0
Format                      : MPEG-4 Visual
Format profile              : [email protected]
Format settings, BVOP       : No
Format settings, QPel       : No
Format settings, GMC        : No warppoints
Format settings, Matrix     : Default (H.263)
Codec ID                    :
Codec ID/Hint               :
Duration                    : 1 h 28 min
Bit rate                    : 1 598 kb/s
Width                       : 720 pixels
Height                      : 384 pixels
Display aspect ratio        : 1.85:1
Frame rate                  : 23.976 (24000/1001) FPS
Color space                 : YUV
Chroma subsampling          : 4:2:0
Bit depth                   : 8 bits
Scan type                   : Progressive
Compression mode            : Lossy
Bits/(Pixel*Frame)          : 0.241
Stream size                 : 1 014 MiB (89%)
Writing library             : Lavc58.1.100

Audio
ID                          : 1
Format                      : AC-3
Format/Info                 : Audio Coding 3
Commercial name             : Dolby Digital
Codec ID                    : 2000
Duration                    : 1 h 28 min
Bit rate mode               : Constant
Bit rate                    : 192 kb/s
Channel(s)                  : 2 channels
Channel positions           : Front: L R
Sampling rate               : 48.0 kHz
Frame rate                  : 31.250 FPS (1536 SPF)
Bit depth                   : 16 bits
Compression mode            : Lossy
Stream size                 : 122 MiB (11%)
Alignment                   : Split accross interleaves
Interleave, duration        : 42  ms (1.00 video frame)
Interleave, preload duratio : 500  ms
Title                       : UKR DUB [Tretyakoff production, stereo]
Service kind                : Complete Main


Підтримати купівлю інших фільмів можна тут.


Джерело: &
Подяка AngryBirdsUA та Hanway'ю за українську доріжку.


 Трекер:    Зареєстрований   

Завантажити / скачати мультфільм українською



відео для новачків



 Зареєстрований:   2018-08-02 20:17
 Розмір:   1.12 GB 
 Оцінка мультфільму:   8.9/10 (Голосів: 24)
   
Ваш часовий пояс: GMT + 2 Години

Нова тема   Відповісти