Відпадний препод 3 (Suck Me Shakespeer 3) / Fack ju Göhte 3 (2017) 2xUkr

Нові коментарі

Нова тема   Відповісти
Автор Повідомлення
Anonymous 







2018-08-02 12:25  
Відпадний препод 3 / Suck Me Shakespeer 3 / Fack ju Göhte 3 (2017) 2xUkr

Відпадний препод 3 (Suck Me Shakespeer 3) / Fack ju Göhte 3 (2017) 2xUkr


Жанр: комедія
Країна: Німеччина



Кінокомпанія: Constantin Film
Режисер: Бора Дагтекін / Bora Dagtekin
Актори: Еліас ЕмБарек / Elyas M'Barek, Катя Ріман / Katja Riemann, Йелла Хаазе / Jella Haase, Макс фон Гробен / Max von der Groeben, Сандра Хюллер / Sandra Hüller, Уші Глас / Uschi Glas, Гізем Емре / Gizem Emre, Арам Арамі / Aram Arami, Юлія Діетце / Julia Dietze, Міхаель Мертенс / Michael Maertens та інші.

Сюжет:
Класному керівнику Зеку Мюллеру дістався клас з самими важкими підлітками у Німеччині. Не минає і дня, щоб ці молоді нащадки чого-небудь не відмочили. Якби не кримінальне минуле Зека, йому б нізащо з ними не впоратися. Але цей рік обіцяє бути особливим. На носі підсумкові іспити, а ніхто з учнів ні в зуб ногою у матеріалі. А все тому, що напередодні з ними поговорив шкільний фахівець з профорієнтації та остаточно відбив у хлопців бажання хоч щось робити. Чи зуміє Зекі допомогти хлопцям знайти мотивацію і повернути віру у себе?
Офіційний український трейлер:


Вікова категорія: 16+
Тривалість: 01:59:31
Якість:

Відео:
кодек:
розмір кадру: 720х304
бітрейт: 1292 кб/с

Аудіо # 1:
мова: українська
переклад: професійний дубльований | студія Tretyakoff production
кодек: 2.0 (стерео)
бітрейт: 192 кб/с

Аудіо # 2:
мова: українська
переклад: багатоголосий закадровий
кодек: 5.1
бітрейт: 448 кб/с
Інформація про озвучення:

Переклад: Шлякбитраф
Текст читали: Crupt, Rendaros, Trina_D
Робота зі звуком, редакція та координація проекту: AdrianZP
Info
Код:
General
Complete name               : Fack ju Gohte 3 (2017) [2xUkr] [Hurtom].avi
Format                      : AVI
Format/Info                 : Audio Video Interleave
File size                   : 1.62 GiB
Duration                    : 1 h 59 min
Overall bit rate            : 1 946 kb/s
Movie name                  : Відпадний препод 3 / Suck Me Shakespeer 3 / Fack ju Gohte 3 (2017) [2xUkr] [Hurtom]
Genre                       : Comedy
Writing application         : VirtualDubModUkr 1.5.10.2 (build 2542/release)
Comment                     : https://toloka.to/t93905

Video
ID                          : 0
Format                      : MPEG-4 Visual
Format profile              : Advanced [email protected]
Format settings             : BVOP1 / Custom Matrix
Format settings, BVOP       : 1
Format settings, QPel       : No
Format settings, GMC        : No warppoints
Format settings, Matrix     : Custom
Codec ID                    :
Codec ID/Hint               :
Duration                    : 1 h 59 min
Bit rate                    : 1 292 kb/s
Width                       : 720 pixels
Height                      : 304 pixels
Display aspect ratio        : 2.35:1
Frame rate                  : 24.000 FPS
Color space                 : YUV
Chroma subsampling          : 4:2:0
Bit depth                   : 8 bits
Scan type                   : Progressive
Compression mode            : Lossy
Bits/(Pixel*Frame)          : 0.246
Stream size                 : 1.08 GiB (66%)
Writing library             : 73

Audio #1
ID                          : 1
Format                      : AC-3
Format/Info                 : Audio Coding 3
Commercial name             : Dolby Digital
Codec ID                    : 2000
Duration                    : 1 h 59 min
Bit rate mode               : Constant
Bit rate                    : 192 kb/s
Channel(s)                  : 2 channels
Channel positions           : Front: L R
Sampling rate               : 48.0 kHz
Frame rate                  : 31.250 FPS (1536 SPF)
Bit depth                   : 16 bits
Compression mode            : Lossy
Stream size                 : 164 MiB (10%)
Alignment                   : Split accross interleaves
Interleave, duration        : 42  ms (1.00 video frame)
Interleave, preload duratio : 500  ms
Title                       : UKR DUB [Tretyakoff production, stereo]
Service kind                : Complete Main

Audio #2
ID                          : 2
Format                      : AC-3
Format/Info                 : Audio Coding 3
Commercial name             : Dolby Digital
Codec ID                    : 2000
Duration                    : 1 h 59 min
Bit rate mode               : Constant
Bit rate                    : 448 kb/s
Channel(s)                  : 6 channels
Channel positions           : Front: L C R, Side: L R, LFE
Sampling rate               : 48.0 kHz
Frame rate                  : 31.250 FPS (1536 SPF)
Bit depth                   : 16 bits
Compression mode            : Lossy
Stream size                 : 383 MiB (23%)
Alignment                   : Split accross interleaves
Interleave, duration        : 42  ms (1.00 video frame)
Interleave, preload duratio : 500  ms
Title                       : UKR MVO [SBTlocalization]
Service kind                : Complete Main




Підтримати купівлю інших фільмів можна тут.


Джерело: &
Подяка AngryBirdsUA, Hanway, AdrianZP за українські доріжки



Авторський реліз (завантажувати можна без реєстрації)
 Трекер:    Зареєстрований   

Завантажити / скачати фільм українською



відео для новачків



 Зареєстрований:   2018-08-02 21:27
 Розмір:   1.62 GB 
 Оцінка фільму:   8.1/10 (Голосів: 25)
   
bartolom 
Новенький


З нами з: 06.09.16
Востаннє: 22.09.19
Повідомлень: 1

2018-08-05 12:50  
"препод" - це що, мається на увазі рус. "прєподаватєль"?
Професійний переклад, нічого не скажешSad (1)

SOS6666 
Частий відвідувач


З нами з: 10.12.10
Востаннє: 22.10.19
Повідомлень: 26

2018-08-05 21:19  
bartolom
а "відпадний" хіба не з тої парафії? Українізатори "йопта"

Sllavko 
Поважний учасник


З нами з: 10.06.12
Востаннє: 16.10.19
Повідомлень: 165

2018-08-06 20:35  
хороша комедія, як і попередні частини.
Skiff 
музика
музика


З нами з: 12.11.07
Востаннє: 21.10.19
Повідомлень: 3063

2018-08-06 21:50  
bartolom
Оригінальна німецька назва як вам? (фак ю, Ґете)

Akelich 
Новенький


З нами з: 19.08.17
Востаннє: 26.09.19
Повідомлень: 1

2018-08-07 23:26  
Skiff
А англійський варіант?)) Suck Me Shakespeer?)) Почуття гумору є в перекладачів) тоді українська версія має бути : "Йди до дупи, Шевченко"

S3M4RiL 
Поважний учасник


З нами з: 25.09.16
Востаннє: 22.10.19
Повідомлень: 223

2018-08-10 19:23  
Akelich написано:
Не минає і дня, щоб ці молоді нащадки чого-небудь не відмочили.

Молоді нащадки? Те що російськомовні почали використовувати українську це позитив, але скільки можна халтурити?

Djohnnikey 
VIP


З нами з: 01.10.15
Востаннє: 20.10.19
Повідомлень: 256

2018-08-12 00:33  
Непогана комедія, яка тримає марку серії, і, головне, залишає глядача з вірою у те, що у цьому житті все можливо, якщо вірити, прикладати зусилля, ну і маленький візок удачі. 9 з 10.
nataliksa 
Свій


З нами з: 18.04.14
Востаннє: 22.10.19
Повідомлень: 57

2018-08-16 10:00  
Є над чим поржати,рекомендую.
Belfegor1 
Новенький


З нами з: 07.11.10
Востаннє: 18.10.19
Повідомлень: 2

2018-08-17 00:55  
як колишній овітянин, скинув знайомим з могилянки)))))))
eXteSy- 
VIP


З нами з: 06.04.09
Востаннє: 21.10.19
Повідомлень: 1999

2019-08-31 23:44  
Ця частина значно краща за попередню. Головний посил про "вірити в свої сили" прямолінійний, але показано все досить весело. Практично на рівні першої частини.
7,5/10

Ваш часовий пояс: GMT + 2 Години

Нова тема   Відповісти