Любовний менеджмент / Management (2008) 1080p Ukr/Eng | Sub Eng

Нові коментарі

Нова тема   Відповісти
Автор Повідомлення
Anonymous 







2018-08-02 08:53  
Любовний менеджмент / Management (2008) 1080p Ukr/Eng | Sub Eng

Любовний менеджмент / Management (2008) 1080p Ukr/Eng | Sub Eng


Жанр: комедія, драма, романтичний
Країна: США



Кінокомпанія: Image Entertainment, Sidney Kimmel Entertainment, Temple Hill Entertainment See
Режисер: Стівен Белбер
Актори: Дженніфер Еністон, Стів Зан, Марго Мартіндейл, Фред Уорд, Джеймс Хіроюкі Ляо, Вуді Харрельсон, Кеті О'Грейді, Іоланда Суарес, Кевін Хеффернан, Дон Бернс, Кімберлі Ховард, Коллін Кроулі, Жілберту Мартін дель Кампо, Марк Бун Джуніор.

Сюжет:
Сью роз'їжджає по країні, продаючи дешеві предмети мистецтва готелям та мотелям, де одного разу знайомиться з менеджером Майком. З першого погляду Майк закохується в Сью, але вона, зробивши справи, виїжджає, навіть не попрощавшись. Закоханий хлопець кидається за своєю любов'ю і ганяється за Сью по всій Америці...


Тривалість: 01:33:33
Якість: 1080p
Відео:
кодек:
розмір кадру: 1920х1040
бітрейт: 10.6 Mb/s

Аудіо # 1:
мова: українська
переклад: багатоголосий закадровий
кодек: 5.1
бітрейт: 448 кб/с

Аудіо # 2:
мова: англійська
переклад: оригінал
кодек: 5.1
бітрейт: 1 509 кб/с

Субтитри:
мова: англійська
тип: програмні (м'які)
формат: *.srt
Трейлер
Info
General
Unique ID : 233426939188629959322280318318603283577 (0xAF9C64A8D22D4547B7C1493FC68A2C79)
Complete name : H:\Toloka\2018\Management..1080p.
Format :
Format version : Version 4 / Version 2
File size : 8.23 GiB
Duration : 1 h 33 min
Overall bit rate : 12.6 Mb/s
Encoded date : UTC 2018-08-02 05:41:19
Writing application : v6.1.0 ('Old Devil') built on Mar 4 2013 09:10:42
Writing library : libebml v1.3.0 + v1.4.0

Video
ID : 1
Format : AVC
Format/Info : Advanced Video Codec
Format profile : [email protected]
Format settings : CABAC / 4 Ref Frames
Format settings, CABAC : Yes
Format settings, ReFrames : 4 frames
Codec ID : V_MPEG4/ISO/AVC
Duration : 1 h 33 min
Bit rate : 10.6 Mb/s
Width : 1 920 pixels
Height : 1 040 pixels
Display aspect ratio : 1.85:1
Frame rate mode : Constant
Frame rate : 23.976 FPS
Color space : YUV
Chroma subsampling : 4:2:0
Bit depth : 8 bits
Scan type : Progressive
Bits/(Pixel*Frame) : 0.222
Stream size : 6.79 GiB (82%)
Writing library : core 75 r1251 e553a4c
Encoding settings : cabac=1 / ref=4 / deblock=1:0:0 / analyse=0x3:0x133 / me=umh / subme=7 / psy=1 / psy_rd=1.0:0.0 / mixed_ref=1 / me_range=16 / chroma_me=1 / trellis=1 / 8x8dct=1 / cqm=0 / deadzone=21,11 / chroma_qp_offset=-2 / threads=12 / nr=0 / decimate=1 / mbaff=0 / bframes=3 / b_pyramid=0 / b_adapt=1 / b_bias=0 / direct=1 / wpredb=1 / keyint=250 / keyint_min=25 / scenecut=40 / rc_lookahead=1 / rc=2pass / mbtree=1 / bitrate=10644 / ratetol=1.0 / qcomp=0.60 / qpmin=10 / qpmax=51 / qpstep=4 / cplxblur=20.0 / qblur=0.5 / ip_ratio=1.40 / aq=1:1.00
Default : Yes
Forced : No

Audio #1
ID : 2
Format : AC-3
Format/Info : Audio Coding 3
Codec ID : A_AC3
Duration : 1 h 33 min
Bit rate mode : Constant
Bit rate : 448 kb/s
Channel(s) : 6 channels
Channel positions : Front: L C R, Side: L R, LFE
Sampling rate : 48.0 kHz
Frame rate : 31.250 FPS (1536 SPF)
Bit depth : 16 bits
Compression mode : Lossy
Stream size : 300 MiB (4%)
Title : UKR (1+1)
Language : Ukrainian
Service kind : Complete Main
Default : Yes
Forced : Yes

Audio #2
ID : 3
Format :
Format/Info : Digital Theater Systems
Codec ID : A_DTS
Duration : 1 h 33 min
Bit rate mode : Constant
Bit rate : 1 509 kb/s
Channel(s) : 6 channels
Channel positions : Front: L C R, Side: L R, LFE
Sampling rate : 48.0 kHz
Frame rate : 93.750 FPS (512 SPF)
Bit depth : 16 bits
Compression mode : Lossy
Stream size : 1 010 MiB (12%)
Title : English
Language : English
Default : No
Forced : No

Text
ID : 4
Format : UTF-8
Codec ID : S_TEXT/UTF8
Codec ID/Info : UTF-8 Plain Text
Title : English
Language : English
Default : No
Forced : No
Скріншоти






Подяка панам xslim та MutuLI за українську звукову доріжку
Подяка пану pan_oleg за постер
Особиста подяка пану denixx за надану матеріальну допомогу на підтримку цього і майбутніх релізів.
Джерело:


 Трекер:    Зареєстрований   

Завантажити / скачати фільм українською



відео для новачків



 Зареєстрований:   2018-08-02 08:53
 Розмір:   8.23 GB 
 Оцінка фільму:   9.7/10 (Голосів: 3)
   
Інші релізи
Ваш часовий пояс: GMT + 2 Години

Нова тема   Відповісти