Подвійний удар / Double Impact (1991) 1080p Ukr/Eng | Sub Eng

Нові коментарі

Нова тема   Відповісти
Автор Повідомлення
Anonymous 







2018-08-02 08:34  
Подвійний удар / Double Impact (1991) 1080p Ukr/Eng | Sub Eng

Подвійний удар / Double Impact (1991) 1080p Ukr/Eng | Sub Eng


Жанр: екшн, кримінальний, драма, трилер
Країна: США



Кінокомпанія: Stone Group Pictures, Vision International
Режисер: Шелдон Леттіч / Sheldon Lettich
Актори: Жан-Клод Ван Дамм / Jean-Claude Van Damme, Джеффрі Льюїс / Geoffrey Lewis, Алонна Шоу / Alonna Shaw, Корінна Еверсон / Corinna Everson, Філіп Чан / Philip Chan, Алан Скарф / Alan Scarfe, Боло Йенг / Bolo Yeung, Енді Армстронг / Andy Armstrong, Bу Фонг Ланг / Wu Fong Lung, Пітер Малота / Peter Malota, Сара-Джейн Варлей / Sarah-Jane Varley, Камель Кріфа / Kamel Krifa, Юджин Чой / Eugene Choy, Джек Гіларді мол. / Jack Gilardi Jr., Девід Ліа / David Lea

Сюжет:
Гонконг. Ван Дамм грає дві ролі - братів-близнюків, батьки яких були віроломно вбиті партнером батька містером Гриффітом. Розлучені в дитинстві, вони зустрічаються знову вже дорослими і натренованими, прямо скажемо, молодцями і об'єднуються разом з другом покійного батька, який врятував свого часу одного з них, щоб помститися і повернути свій стан.


Тривалість: 01:49:40
Якість: 1080p
Відео:
кодек:
розмір кадру: 1920х1040
бітрейт: 8 240 кб/с

Аудіо # 1:
мова: українська
переклад: двоголосий закадровий
кодек: 2.0
бітрейт: 192 кб/с

Аудіо # 2:
мова: англійська
переклад: оригінал
кодек: 2.0
бітрейт: 256 кб/с

Субтитри:
мова: англійська
тип: програмні (м'які)
формат: *.srt
Info
General
Unique ID : 213386357416530488105068117146430026566 (0xA088B7B12CB8FD39820B3D0EA7173346)
Format :
Format version : Version 4 / Version 2
File size : 6.65 GiB
Duration : 1 h 49 min
Overall bit rate : 8 678 kb/s
Encoded date : UTC 2018-08-02 05:25:53
Writing application : v6.1.0 ('Old Devil') built on Mar 4 2013 09:10:42
Writing library : libebml v1.3.0 + v1.4.0

Video
ID : 1
Format : AVC
Format/Info : Advanced Video Codec
Format profile : [email protected]
Format settings : CABAC / 4 Ref Frames
Format settings, CABAC : Yes
Format settings, ReFrames : 4 frames
Codec ID : V_MPEG4/ISO/AVC
Duration : 1 h 49 min
Bit rate : 8 240 kb/s
Width : 1 920 pixels
Height : 1 040 pixels
Display aspect ratio : 1.85:1
Frame rate mode : Constant
Frame rate : 23.976 (24000/1001) FPS
Color space : YUV
Chroma subsampling : 4:2:0
Bit depth : 8 bits
Scan type : Progressive
Bits/(Pixel*Frame) : 0.172
Stream size : 6.17 GiB (93%)
Title : Release by Alex260680
Writing library : core 128 r2216M 198a7ea
Encoding settings : cabac=1 / ref=4 / deblock=1:0:0 / analyse=0x3:0x133 / me=umh / subme=11 / psy=1 / psy_rd=1.00:0.10 / mixed_ref=1 / me_range=48 / chroma_me=1 / trellis=2 / 8x8dct=1 / cqm=0 / deadzone=21,11 / fast_pskip=0 / chroma_qp_offset=-3 / threads=12 / lookahead_threads=2 / sliced_threads=0 / nr=0 / decimate=0 / interlaced=0 / bluray_compat=0 / constrained_intra=0 / bframes=5 / b_pyramid=2 / b_adapt=2 / b_bias=0 / direct=3 / weightb=1 / open_gop=0 / weightp=2 / keyint=240 / keyint_min=23 / scenecut=40 / intra_refresh=0 / rc=2pass / mbtree=0 / bitrate=8240 / ratetol=1.0 / qcomp=0.60 / qpmin=0 / qpmax=69 / qpstep=4 / cplxblur=20.0 / qblur=0.5 / ip_ratio=1.40 / pb_ratio=1.30 / aq=1:0.70
Language : English
Default : Yes
Forced : No

Audio #1
ID : 2
Format : AC-3
Format/Info : Audio Coding 3
Codec ID : A_AC3
Duration : 1 h 49 min
Bit rate mode : Constant
Bit rate : 192 kb/s
Channel(s) : 2 channels
Channel positions : Front: L R
Sampling rate : 48.0 kHz
Frame rate : 31.250 FPS (1536 SPF)
Bit depth : 16 bits
Compression mode : Lossy
Stream size : 151 MiB (2%)
Title : UKR(2+2)
Language : Ukrainian
Service kind : Complete Main
Default : Yes
Forced : Yes

Audio #2
ID : 3
Format : AC-3
Format/Info : Audio Coding 3
Codec ID : A_AC3
Duration : 1 h 49 min
Bit rate mode : Constant
Bit rate : 256 kb/s
Channel(s) : 2 channels
Channel positions : Front: L R
Sampling rate : 48.0 kHz
Frame rate : 31.250 FPS (1536 SPF)
Bit depth : 16 bits
Compression mode : Lossy
Stream size : 201 MiB (3%)
Title : Original (English)
Language : English
Service kind : Complete Main
Default : No
Forced : No

Text
ID : 4
Format : UTF-8
Codec ID : S_TEXT/UTF8
Codec ID/Info : UTF-8 Plain Text
Language : English
Default : No
Forced : No

Menu
00:00:00.000 : en:Chapter1
00:03:22.035 : en:Chapter2
00:09:45.334 : en:Chapter3
00:13:07.161 : en:Chapter4
00:21:00.050 : en:Chapter5
00:29:03.616 : en:Chapter6
00:37:33.251 : en:Chapter7
00:42:20.955 : en:Chapter8
00:50:04.376 : en:Chapter9
00:58:54.656 : en:Chapter10
01:07:32.131 : en:Chapter11
01:17:58.548 : en:Chapter12
01:23:50.066 : en:Chapter13
01:28:48.072 : en:Chapter14
01:34:14.398 : en:Chapter15
01:44:12.621 : en:Chapter16
01:49:40.323 : en:Chapter17
Скріншоти






За українську доріжку подяка п. karvai0
Особиста подяка пану denixx за надану матеріальну допомогу на підтримку цього і майбутніх релізів.
Джерело:


Срібний реліз (на рейтинг впливає 50% завантаженого)
 Трекер:    Зареєстрований   

Завантажити / скачати фільм українською



відео для новачків



 Зареєстрований:   2018-08-02 08:34
 Розмір:   6.65 GB 
 Оцінка фільму:   8.7/10 (Голосів: 7)
   
Інші релізи
   Подвійний удар / Double Impact (1991) Ukr/Eng | Sub Eng karvai0  5 / 1   1.74 GB   2012-10-23 01:16 
olexiykos 
Новенький


З нами з: 10.10.17
Востаннє: 18.09.19
Повідомлень: 7

2019-02-25 23:24  
зробіть розмір від 2-х до 3 гб
Ваш часовий пояс: GMT + 2 Години

Нова тема   Відповісти