Ла Ла Ленд / La La Land (2016) 1080p H.265 2xUkr/Eng | Sub Ukr/Eng

Нові коментарі

Нова тема   Відповісти
Автор Повідомлення
ukr_anonymous 
Попереджень: 1
Попереджень: 1 


З нами з: 17.04.18
Востаннє: 25.05.19
Повідомлень: 234

2018-07-31 16:43  
Ла Ла Ленд / La La Land (2016) 1080p H.265 2xUkr/Eng | Sub Ukr/Eng

Ла Ла Ленд / La La Land (2016) 1080p H.265 2xUkr/Eng | Sub Ukr/Eng


Жанр: комедія, драма, мюзикл
Країна: США



Кінокомпанія: Black Label Media, Gilbert Films, Impostor Pictures
Режисер: Дем'єн Шазелл
Актори: Раян Ґослінґ, Емма Стоун, Джон Ледженд, Дж.К. Сіммонс, Розмарі ДеВітт, Фінн Віттрок, Каллі Ернандес, С. Мідзуно, Джессіка Рот та інші

Сюжет:
Це історія кохання молодої акторки, яка між прослуховуваннями подає каву відомим кінозіркам, і фанатичного джазового музиканта, котрий змушений підробляти в заштатних барах. Але успіх, який прийшов до закоханих, починає підточувати їхні стосунки...


Тривалість: 02:07:56
Якість:
Відео:
кодек: H.265 (HEVC)
розмір кадру: 1920 х 752
бітрейт: 4 999 кб/с
бітова глибина: 10 біт
Увага! Перед завантаженням переконайтесь, що ваш пристрій відтворення (та/або ПЗ) підтримує H.265 (HEVC)

Аудіо # 1:
мова: українська
переклад: багатоголосий закадровий
кодек: 5.1
бітрейт: 1 509 кб/с

Аудіо # 2:
мова: українська
переклад: професійний дубльований
кодек: 2.0
бітрейт: 192 кб/с

Аудіо # 3:
мова: англійська
переклад: оригінал
кодек: 5.1
бітрейт: 640 кб/с

Субтитри # 1-2:
мова: українська (Forced, Full)
тип: програмні (м'які)
формат: *.srt
переклад: Богдан Закордонець і Цікава Ідея

Субтитри # 3-4:
мова: англійська (Full, SDH)
тип: пререндерені
формат: *.pgs
Info
General
Unique ID : 291383728145882950382403804393019296451 (0xDB3676F8D450598FBDAE58D0C3A04AC3)
Complete name : E:\video\La La Land (2016) 1080p H.265 [2xUKR_ENG].
Format :
Format version : Version 4 / Version 2
File size : 6.59 GiB
Duration : 2 h 7 min
Overall bit rate : 7 370 kb/s
Movie name : La-La Land (2016)
Encoded date : UTC 2018-07-31 10:26:50
Writing application : v20.0.0 ('I Am The Sun') 32-bit
Writing library : libebml v1.3.5 + v1.4.8
Cover : Yes
Attachments : cover.jpg

Video
ID : 1
Format : HEVC
Format/Info : High Efficiency Video Coding
Format profile : Main [email protected]@Main
Codec ID : V_MPEGH/ISO/HEVC
Duration : 2 h 7 min
Bit rate : 4 999 kb/s
Width : 1 920 pixels
Height : 752 pixels
Display aspect ratio : 2.553
Frame rate mode : Constant
Frame rate : 23.976 (24000/1001) FPS
Original frame rate : 23.976 (23976/1000) FPS
Color space : YUV
Chroma subsampling : 4:2:0
Bit depth : 10 bits
Bits/(Pixel*Frame) : 0.144
Stream size : 4.47 GiB (68%)
Writing library : x265 1.9:[Linux][GCC 4.6.2][64 bit] 10bit
Encoding settings : wpp / ctu=64 / min-cu-size=8 / max-tu-size=32 / tu-intra-depth=1 / tu-inter-depth=1 / me=3 / subme=3 / merange=57 / rect / no-amp / max-merge=3 / temporal-mvp / no-early-skip / rdpenalty=0 / no-tskip / no-tskip-fast / strong-intra-smoothing / no-lossless / no-cu-lossless / no-constrained-intra / no-fast-intra / no-open-gop / no-temporal-layers / interlace=0 / keyint=250 / min-keyint=23 / scenecut=0 / rc-lookahead=25 / lookahead-slices=4 / bframes=4 / bframe-bias=0 / b-adapt=2 / ref=3 / limit-refs=3 / limit-modes / weightp / no-weightb / aq-mode=1 / qg-size=32 / aq-strength=1.00 / cbqpoffs=0 / crqpoffs=0 / rd=4 / psy-rd=2.00 / rdoq-level=2 / psy-rdoq=1.00 / signhide / deblock / sao / no-sao-non-deblock / b-pyramid / cutree / no-intra-refresh / rc=2 / pass / bitrate=5000 / qcomp=0.60 / qpmin=0 / qpmax=51 / qpstep=4 / cplxblur=20.0 / qblur=0.5 / ipratio=1.40 / pbratio=1.30
Default : Yes
Forced : No
Color range : Limited
Color primaries : BT.2020
Transfer characteristics : PQ
Matrix coefficients : BT.2020 non-constant

Audio #1
ID : 2
Format :
Format/Info : Digital Theater Systems
Codec ID : A_DTS
Duration : 2 h 7 min
Bit rate mode : Constant
Bit rate : 1 509 kb/s
Channel(s) : 6 channels
Channel positions : Front: L C R, Side: L R, LFE
Sampling rate : 48.0 kHz
Frame rate : 93.750 FPS (512 SPF)
Bit depth : 24 bits
Compression mode : Lossy
Stream size : 1.35 GiB (20%)
Title : Цікава Ідея | 5.1 @ 1509 kbps
Language : Ukrainian
Default : No
Forced : No

Audio #2
ID : 3
Format : AC-3
Format/Info : Audio Coding 3
Codec ID : A_AC3
Duration : 2 h 7 min
Bit rate mode : Constant
Bit rate : 192 kb/s
Channel(s) : 2 channels
Channel positions : Front: L R
Sampling rate : 48.0 kHz
Frame rate : 31.250 FPS (1536 SPF)
Bit depth : 16 bits
Compression mode : Lossy
Stream size : 176 MiB (3%)
Title : Дубляж | 2.0 @ 192 kbps
Language : Ukrainian
Service kind : Complete Main
Default : Yes
Forced : No

Audio #3
ID : 4
Format : AC-3
Format/Info : Audio Coding 3
Codec ID : A_AC3
Duration : 2 h 7 min
Bit rate mode : Constant
Bit rate : 640 kb/s
Channel(s) : 6 channels
Channel positions : Front: L C R, Side: L R, LFE
Sampling rate : 48.0 kHz
Frame rate : 31.250 FPS (1536 SPF)
Bit depth : 16 bits
Compression mode : Lossy
Stream size : 585 MiB (9%)
Language : English
Service kind : Complete Main
Default : No
Forced : No

Text #1
ID : 5
Format : UTF-8
Codec ID : S_TEXT/UTF8
Codec ID/Info : UTF-8 Plain Text
Duration : 1 h 53 min
Bit rate : 13 b/s
Count of elements : 221
Stream size : 11.1 KiB (0%)
Title : forced
Language : Ukrainian
Default : Yes
Forced : No

Text #2
ID : 6
Format : UTF-8
Codec ID : S_TEXT/UTF8
Codec ID/Info : UTF-8 Plain Text
Duration : 1 h 59 min
Bit rate : 65 b/s
Count of elements : 1030
Stream size : 57.3 KiB (0%)
Title : full
Language : Ukrainian
Default : No
Forced : No

Text #3
ID : 7
Format : PGS
Muxing mode : zlib
Codec ID : S_HDMV/PGS
Codec ID/Info : Picture based subtitle format used on BDs/HD-DVDs
Duration : 1 h 59 min
Bit rate : 31.6 kb/s
Count of elements : 2726
Stream size : 27.1 MiB (0%)
Language : English
Default : No
Forced : No

Text #4
ID : 8
Format : PGS
Muxing mode : zlib
Codec ID : S_HDMV/PGS
Codec ID/Info : Picture based subtitle format used on BDs/HD-DVDs
Duration : 1 h 59 min
Bit rate : 28.2 kb/s
Count of elements : 2420
Stream size : 24.1 MiB (0%)
Language : English
Default : No
Forced : No

Menu
00:00:00.000 : en:00:00:00.000
00:07:06.926 : en:00:07:06.926
00:17:30.883 : en:00:17:30.883
00:26:05.856 : en:00:26:05.856
00:31:14.039 : en:00:31:14.039
00:39:29.075 : en:00:39:29.075
00:46:17.566 : en:00:46:17.566
00:52:11.170 : en:00:52:11.170
00:58:50.360 : en:00:58:50.360
01:05:58.580 : en:01:05:58.580
01:13:01.293 : en:01:13:01.293
01:24:16.301 : en:01:24:16.301
01:31:50.880 : en:01:31:50.880
01:41:10.981 : en:01:41:10.981
01:46:07.611 : en:01:46:07.611
01:56:19.598 : en:01:56:19.598
Скріншоти



Джерело:
Особиста оцінка: 6 - третій сорт - не брак

ЗАЛИШАЙТЕСЬ ЯКОМОГА ДОВШЕ НА РОЗДАЧІ!
ЗАВАНТАЖИВ САМ - ДАЙ ЗАВАНТАЖИТИ ІНШИМ


Авторський реліз (завантажувати можна без реєстрації)
 Трекер:    Зареєстрований   

Завантажити / скачати фільм українською



відео для новачків



 Зареєстрований:   2018-07-31 16:43
 Розмір:   6.59 GB 
 Оцінка фільму:   10/10 (Голосів: 4)
   
Інші релізи
   Ла Ла Ленд / La La Land (2016) 1080p H.265 2xUkr/Eng | Sub Ukr/Eng -Star-Lord-  1 / 0   9.12 GB   2019-01-10 19:31 
   Ла Ла Ленд / La La Land (2016) Remux 1080p 2xUkr/Eng | Sub Ukr/Eng staf777  1 / 0   29.65 GB   2018-03-01 13:11 
   Ла Ла Ленд / La La Land (2016) AVC 2xUkr BASTERD-94  6 / 0   2.25 GB   2017-04-25 21:34 
   Ла Ла Ленд / La La Land (2016) 2xUkr Gelios  13 / 0   2.18 GB   2017-04-23 12:52 
   Ла Ла Ленд / La La Land (2016) AVC 2xUkr/Eng | Sub Ukr/Eng Electroz  3 / 0   2.35 GB   2017-04-22 23:20 
   Ла-Ла Ленд (Ла Ла Ленд) / La La Land (2016) 720p 2xUkr/Eng | Sub Ukr/Eng Patriot_ukr  13 / 0   7.65 GB   2017-04-22 19:53 
   Ла Ла Ленд / La La Land (2016) 1080p 2xUkr/Eng | Sub Ukr/Eng Electroz  4 / 0   16.09 GB   2017-04-22 13:20 
Ваш часовий пояс: GMT + 2 Години

Нова тема   Відповісти