Астерікс і вікінги / Asterix et les Vikings (2006) 1080p 2xUkr/Fra | Sub Eng

Нові коментарі

Нова тема   Відповісти
Автор Повідомлення
Anonymous 







2018-07-31 15:11  
Астерікс і вікінги / Asterix et les Vikings (2006) 1080p 2xUkr/Fra | Sub Eng

Астерікс і вікінги / Asterix et les Vikings (2006) 1080p 2xUkr/Fra | Sub Eng


Жанр: анімація, пригодницький, комедія
Країна: Франція



Кінокомпанія: M6 Films, Mandarin SAS, 2d3D Animations
Режисер: Стефан Фельдмарк, Джеспер Мюллер
Актори: Роже Карель, Лоран Дойч, Сара Форест, Жак Франц, П'єр Пальмад, П'єр Чернія, Бернар Алан, Марк Альфос, Жуль Азем, Патрік Борґ

Сюжет:
Астерікс і Обелікс вперше у своєму житті повинні зустрітися з вікінгами. Безстрашні воїни з північної країни викрали племінника вождя галлів, юного Задиру. Місія надзвичайно небезпечна, тому що вікінги славляться як відчайдушні і безжальні воїни...


Тривалість: 01:18:03
Якість: 1080p
Відео:
кодек:
розмір кадру: 1916х1036
бітрейт: 6505 кб/с

Аудіо # 1:
мова: українська
переклад: багатоголосий закадровий
кодек: 2.0
бітрейт: 192 кб/с

Аудіо # 2:
мова: українська
переклад: багатоголосий закадровий
кодек: 2.0
бітрейт: 192 кб/с

Аудіо # 3:
мова: французька
переклад: оригінал
кодек: 5.1
бітрейт: 1509 кб/с

Субтитри:
мова: англійська
тип: програмні (м'які)
формат: *.srt
Info
General
Unique ID : 244797919874023647131168818740669832580 (0xB82A5D4AB04DDE26AE43C75BA299DD84)
Format :
Format version : Version 4 / Version 2
File size : 4.58 GiB
Duration : 1 h 18 min
Overall bit rate : 8 398 kb/s
Movie name : Astérix et les Vikings (2006)
Encoded date : UTC 2018-07-31 13:04:38
Writing application : v6.1.0 ('Old Devil') built on Mar 4 2013 09:10:42
Writing library : libebml v1.3.0 + v1.4.0

Video
ID : 1
Format : AVC
Format/Info : Advanced Video Codec
Format profile : [email protected]
Format settings : CABAC / 4 Ref Frames
Format settings, CABAC : Yes
Format settings, ReFrames : 4 frames
Codec ID : V_MPEG4/ISO/AVC
Duration : 1 h 18 min
Bit rate : 6 505 kb/s
Width : 1 916 pixels
Height : 1 036 pixels
Display aspect ratio : 1.85:1
Frame rate mode : Constant
Frame rate : 24.000 FPS
Color space : YUV
Chroma subsampling : 4:2:0
Bit depth : 8 bits
Scan type : Progressive
Bits/(Pixel*Frame) : 0.137
Stream size : 3.46 GiB (75%)
Writing library : core 115 r1936 7a9e08d
Encoding settings : cabac=1 / ref=4 / deblock=1:-3:-3 / analyse=0x3:0x133 / me=umh / subme=9 / psy=1 / psy_rd=1.10:0.00 / mixed_ref=1 / me_range=32 / chroma_me=1 / trellis=2 / 8x8dct=1 / cqm=0 / deadzone=21,11 / fast_pskip=0 / chroma_qp_offset=-2 / threads=6 / sliced_threads=0 / nr=0 / decimate=0 / interlaced=0 / bluray_compat=0 / constrained_intra=0 / bframes=7 / b_pyramid=2 / b_adapt=2 / b_bias=0 / direct=3 / weightb=1 / open_gop=0 / weightp=2 / keyint=250 / keyint_min=24 / scenecut=40 / intra_refresh=0 / rc_lookahead=60 / rc=2pass / mbtree=1 / bitrate=6505 / ratetol=1.0 / qcomp=0.75 / qpmin=0 / qpmax=69 / qpstep=4 / cplxblur=20.0 / qblur=0.5 / vbv_maxrate=50000 / vbv_bufsize=62500 / nal_hrd=none / ip_ratio=1.40 / aq=1:0.80
Language : French
Default : Yes
Forced : No

Audio #1
ID : 2
Format : AC-3
Format/Info : Audio Coding 3
Codec ID : A_AC3
Duration : 1 h 18 min
Bit rate mode : Constant
Bit rate : 192 kb/s
Channel(s) : 2 channels
Channel positions : Front: L R
Sampling rate : 48.0 kHz
Frame rate : 31.250 FPS (1536 SPF)
Bit depth : 16 bits
Compression mode : Lossy
Stream size : 107 MiB (2%)
Title : UKR (TET)
Language : Ukrainian
Service kind : Complete Main
Default : Yes
Forced : Yes

Audio #2
ID : 3
Format : AC-3
Format/Info : Audio Coding 3
Codec ID : A_AC3
Duration : 1 h 18 min
Bit rate mode : Constant
Bit rate : 192 kb/s
Channel(s) : 2 channels
Channel positions : Front: L R
Sampling rate : 48.0 kHz
Frame rate : 31.250 FPS (1536 SPF)
Bit depth : 16 bits
Compression mode : Lossy
Stream size : 107 MiB (2%)
Title : UKR (Новий)
Language : Ukrainian
Service kind : Complete Main
Default : No
Forced : No

Audio #3
ID : 4
Format :
Format/Info : Digital Theater Systems
Codec ID : A_DTS
Duration : 1 h 18 min
Bit rate mode : Constant
Bit rate : 1 509 kb/s
Channel(s) : 6 channels
Channel positions : Front: L C R, Side: L R, LFE
Sampling rate : 48.0 kHz
Frame rate : 93.750 FPS (512 SPF)
Bit depth : 24 bits
Compression mode : Lossy
Delay relative to video : 33 ms
Stream size : 843 MiB (18%)
Language : French
Default : No
Forced : No

Text
ID : 5
Format : UTF-8
Codec ID : S_TEXT/UTF8
Codec ID/Info : UTF-8 Plain Text
Language : English
Default : No
Forced : No

Menu
00:00:00.000 : en:00:00:00.000
00:07:38.776 : en:00:07:38.776
00:13:21.368 : en:00:13:21.368
00:22:27.581 : en:00:22:27.581
00:31:04.931 : en:00:31:04.931
00:38:22.326 : en:00:38:22.326
00:46:44.494 : en:00:46:44.494
00:53:51.254 : en:00:53:51.254
01:00:21.602 : en:01:00:21.602
01:05:52.892 : en:01:05:52.892
Скріншоти





За українські доріжки подяка п.: POMEO, xslim, Gelios, за постер подяка Gelios'у.
Особиста подяка пану denixx за надану матеріальну допомогу на підтримку цього і майбутніх релізів.
Джерело:


 Трекер:    Зареєстрований   

Завантажити / скачати мультфільм українською



відео для новачків



 Зареєстрований:   2018-07-31 15:11
 Розмір:   4.58 GB 
 Оцінка мультфільму:   6.7/10 (Голосів: 3)
   
Ваш часовий пояс: GMT + 2 Години

Нова тема   Відповісти