Мілина / The Shallows (2016) 1080p H.265 Ukr/Eng | Sub Ukr/Eng

Нові коментарі

Нова тема   Відповісти
Автор Повідомлення
ukr_anonymous 
Попереджень: 1
Попереджень: 1 


З нами з: 17.04.18
Востаннє: 08.09.19
Повідомлень: 234

2018-07-31 12:56  
Мілина / The Shallows (2016) 1080p H.265 Ukr/Eng | Sub Ukr/Eng

Мілина / The Shallows (2016) 1080p H.265 Ukr/Eng | Sub Ukr/Eng
Усі українські постери:








повнорозмірні зображення відкриються по кліку (з натиснутим CTRL чи кліком середньою кнопкою мишки - у новій вкладці)


Жанр: драма, жахи, трилер
Країна: США



Кінокомпанія: Columbia Pictures, Ombra Films, Weimaraner Republic Pictures
Режисер: Жауме Коллет-Серра / Jaume Collet-Serra
Актори: Блейк Лайвлі / Blake Lively, Оскар Гаенада / Óscar Jaenada, Бретт Каллен / Brett Cullen, Седона Леджен / Sedona Legge, Пабло Кальва / Pablo Calva, Дієґо Еспегель / Diego Espejel, Джанелл Бейлі / Janelle Bailey, Ава Дін / Ava Dean, Челсі Муді / Chelsea Moody, Саллі Сіґалл / Sully Seagull

Сюжет:
Безкрайній океан, безлюдний пляж і ідеальна погода для серфінгістів в пошуках хорошої хвилі. Здавалося б, ніщо не віщує біди для чарівної любительки серфінгу. Хіба що побачення тет-а-тет з гігантською акулою, яка зажене спортсменку на піщану мілину і не відступить до тих пір, поки не отримає своє.


Тривалість: 01:26:16
Якість:
Відео:
кодек: H.265 (HEVC)
розмір кадру: 1920 х 804
бітрейт: 5000 кб/с
бітова глибина: 10 біт
Увага! Перед завантаженням переконайтесь, що ваш пристрій відтворення (та/або ПЗ) підтримує H.265 (HEVC)

Аудіо # 1:
мова: українська
переклад: професійний дубльований
кодек: 2.0
бітрейт: 192 кб/с

Аудіо # 2:
мова: англійська
переклад: оригінал
кодек: 5.1
бітрейт: 448 кб/с

Субтитри # 1-2:
мова: українська (форсовані, повні)
тип: програмні (м'які)
формат: *.srt
примітка: переклад Aqbf, синхронізація та редагування igor911

Субтитри # 3-5:
мова: англійська (форсовані, повні, SDH)
тип: програмні (м'які)
формат: *.srt
Info
General
Unique ID : 110947999291842421127431694645701332876 (0x5377CEB2760F18376D61705262334F8C)
Complete name : E:\Video\The Shallows (2016) 1080p H.265 [UKR_ENG].
Format :
Format version : Version 4 / Version 2
File size : 3.40 GiB
Duration : 1 h 26 min
Overall bit rate : 5 642 kb/s
Movie name : Shallows (2016)
Encoded date : UTC 2018-07-31 08:06:11
Writing application : v20.0.0 ('I Am The Sun') 32-bit
Writing library : libebml v1.3.5 + v1.4.8
Cover : Yes
Attachments : cover.jpg

Video
ID : 1
Format : HEVC
Format/Info : High Efficiency Video Coding
Format profile : Main [email protected]@Main
Codec ID : V_MPEGH/ISO/HEVC
Duration : 1 h 26 min
Bit rate : 5 000 kb/s
Width : 1 920 pixels
Height : 804 pixels
Display aspect ratio : 2.40:1
Frame rate mode : Constant
Frame rate : 23.976 (24000/1001) FPS
Color space : YUV
Chroma subsampling : 4:2:0
Bit depth : 10 bits
Bits/(Pixel*Frame) : 0.135
Stream size : 3.01 GiB (89%)
Writing library : x265 2.8+40-0106f9f2f867:[Windows][GCC 7.3.0][64 bit] 10bit
Encoding settings : cpuid=1111039 / frame-threads=3 / numa-pools=8 / wpp / no-pmode / no-pme / no-psnr / no-ssim / log-level=2 / input-csp=1 / input-res=1920x804 / interlace=0 / total-frames=124104 / level-idc=0 / high-tier=1 / uhd-bd=0 / ref=4 / no-allow-non-conformance / no-repeat-headers / annexb / no-aud / no-hrd / info / hash=0 / no-temporal-layers / open-gop / min-keyint=23 / keyint=250 / gop-lookahead=0 / bframes=4 / b-adapt=2 / b-pyramid / bframe-bias=0 / rc-lookahead=25 / lookahead-slices=4 / scenecut=40 / radl=0 / no-intra-refresh / ctu=64 / min-cu-size=8 / rect / no-amp / max-tu-size=32 / tu-inter-depth=1 / tu-intra-depth=1 / limit-tu=0 / rdoq-level=2 / dynamic-rd=0.00 / no-ssim-rd / signhide / no-tskip / nr-intra=0 / nr-inter=0 / no-constrained-intra / strong-intra-smoothing / max-merge=3 / limit-refs=3 / limit-modes / me=3 / subme=3 / merange=57 / temporal-mvp / weightp / no-weightb / no-analyze-src-pics / deblock=0:0 / sao / no-sao-non-deblock / rd=4 / no-early-skip / rskip / no-fast-intra / no-tskip-fast / no-cu-lossless / no-b-intra / no-splitrd-skip / rdpenalty=0 / psy-rd=2.00 / psy-rdoq=1.00 / no-rd-refine / no-lossless / cbqpoffs=0 / crqpoffs=0 / rc=abr / bitrate=5000 / qcomp=0.60 / qpstep=4 / stats-write=0 / stats-read=2 / cplxblur=20.0 / qblur=0.5 / ipratio=1.40 / pbratio=1.30 / aq-mode=3 / aq-strength=1.00 / cutree / zone-count=0 / no-strict-cbr / qg-size=32 / no-rc-grain / qpmax=69 / qpmin=0 / no-const-vbv / sar=0 / overscan=0 / videoformat=5 / range=0 / colorprim=2 / transfer=2 / colormatrix=2 / chromaloc=0 / display-window=0 / max-cll=0,0 / min-luma=0 / max-luma=1023 / log2-max-poc-lsb=8 / vui-timing-info / vui-hrd-info / slices=1 / no-opt-qp-pps / no-opt-ref-list-length-pps / multi-pass-opt-rps / scenecut-bias=0.05 / no-opt-cu-delta-qp / aq-motion / no-hdr / no-hdr-opt / no-dhdr10-opt / no-idr-recovery-sei / analysis-reuse-level=5 / scale-factor=0 / refine-intra=0 / refine-inter=0 / refine-mv=0 / no-limit-sao / ctu-info=0 / no-lowpass-dct / refine-mv-type=0 / copy-pic=1 / max-ausize-factor=1.0 / no-dynamic-refine / no-single-sei
Default : Yes
Forced : No

Audio #1
ID : 2
Format : AC-3
Format/Info : Audio Coding 3
Codec ID : A_AC3
Duration : 1 h 26 min
Bit rate mode : Constant
Bit rate : 192 kb/s
Channel(s) : 2 channels
Channel positions : Front: L R
Sampling rate : 48.0 kHz
Frame rate : 31.250 FPS (1536 SPF)
Bit depth : 16 bits
Compression mode : Lossy
Stream size : 118 MiB (3%)
Title : Dub [LeDoyen] 2.0 [real stereo] 192 Kbps [Hurtom]
Language : Ukrainian
Service kind : Complete Main
Default : Yes
Forced : No

Audio #2
ID : 3
Format : AC-3
Format/Info : Audio Coding 3
Codec ID : A_AC3
Duration : 1 h 26 min
Bit rate mode : Constant
Bit rate : 448 kb/s
Channel(s) : 6 channels
Channel positions : Front: L C R, Side: L R, LFE
Sampling rate : 48.0 kHz
Frame rate : 31.250 FPS (1536 SPF)
Bit depth : 16 bits
Compression mode : Lossy
Stream size : 276 MiB (8%)
Title : Original, 5.1 448 kbps
Language : English
Service kind : Complete Main
Default : No
Forced : No

Text #1
ID : 4
Format : UTF-8
Codec ID : S_TEXT/UTF8
Codec ID/Info : UTF-8 Plain Text
Duration : 6 min 45 s
Bit rate : 6 b/s
Count of elements : 16
Stream size : 332 Bytes (0%)
Title : Ukr Forced [Hurtom-[igor911,Aqbf]
Language : Ukrainian
Default : Yes
Forced : Yes

Text #2
ID : 5
Format : UTF-8
Codec ID : S_TEXT/UTF8
Codec ID/Info : UTF-8 Plain Text
Duration : 1 h 20 min
Bit rate : 26 b/s
Count of elements : 454
Stream size : 15.4 KiB (0%)
Title : Ukr Full [Hurtom-Aqbf,igor911]
Language : Ukrainian
Default : No
Forced : No

Text #3
ID : 6
Format : UTF-8
Codec ID : S_TEXT/UTF8
Codec ID/Info : UTF-8 Plain Text
Duration : 4 min 19 s
Bit rate : 6 b/s
Count of elements : 12
Stream size : 202 Bytes (0%)
Title : Eng Forced
Language : English
Default : No
Forced : No

Text #4
ID : 7
Format : UTF-8
Codec ID : S_TEXT/UTF8
Codec ID/Info : UTF-8 Plain Text
Duration : 1 h 19 min
Bit rate : 20 b/s
Count of elements : 568
Stream size : 12.1 KiB (0%)
Title : Eng Full
Language : English
Default : No
Forced : No

Text #5
ID : 8
Format : UTF-8
Codec ID : S_TEXT/UTF8
Codec ID/Info : UTF-8 Plain Text
Duration : 1 h 25 min
Bit rate : 27 b/s
Count of elements : 915
Stream size : 17.4 KiB (0%)
Title : Eng SDH
Language : English
Default : No
Forced : No

Menu
00:00:00.000 : en:Chapter 01
00:08:09.322 : en:Chapter 02
00:15:10.409 : en:Chapter 03
00:20:31.939 : en:Chapter 04
00:25:45.835 : en:Chapter 05
00:30:06.763 : en:Chapter 06
00:36:04.537 : en:Chapter 07
00:40:39.687 : en:Chapter 08
00:45:41.989 : en:Chapter 09
00:49:32.219 : en:Chapter 10
00:55:57.729 : en:Chapter 11
01:01:21.302 : en:Chapter 12
01:06:22.561 : en:Chapter 13
01:09:57.443 : en:Chapter 14
01:13:38.705 : en:Chapter 15
01:19:01.653 : en:Chapter 16
Скріншоти



Джерело:
Особиста оцінка: 0 - не дивився

ЗАЛИШАЙТЕСЬ ЯКОМОГА ДОВШЕ НА РОЗДАЧІ!
ЗАВАНТАЖИВ САМ - ДАЙ ЗАВАНТАЖИТИ ІНШИМ


 Трекер:    Зареєстрований   

Завантажити / скачати фільм українською



відео для новачків



 Зареєстрований:   2018-07-31 12:56
 Розмір:   3.4 GB 
 Оцінка фільму:   8.4/10 (Голосів: 5)
   
Інші релізи
   Мілина / The Shallows (2016) 1080p Ukr/Eng | Sub Ukr/Eng 11FrYkT  2 / 0   9.64 GB   2019-06-10 11:24 
   Мілина / The Shallows (2016) AVC Ukr | Sub Ukr/Eng AngryBirdsUA  1 / 0   1.45 GB   2019-06-08 12:12 
   Мілина / The Shallows (2016) UHD 4K 2160p H.265 HDR Ukr/Eng | Sub Ukr/Eng Babamin  4 / 0   9.38 GB   2017-10-02 00:16 
   Мілина / The Shallows (2016) Remux 1080p Ukr/Eng | Sub Ukr/Eng famous37  1 / 0   17.79 GB   2017-03-13 22:06 
   Мілина / The Shallows (2016) AVC Ukr/Eng | Sub Ukr/Eng igor911  2 / 0   2.85 GB   2016-09-21 04:29 
   Мілина / The Shallows (2016) 720p Ukr/Eng | Sub Ukr/Eng igor911  4 / 0   5.25 GB   2016-09-21 03:41 
   Мілина / The Shallows (2016) Gelios  3 / 0   1.45 GB   2016-09-20 23:43 
   Мілина / The Shallows (2016) 1080p Eng | Sub Ukr/Eng Aqbf  0 / 0   2.26 GB   2016-09-12 01:57 
Wensun 
Свій


З нами з: 20.01.09
Востаннє: 23.10.19
Повідомлень: 138

2018-08-02 21:53  
файне кіно і кобіта файна
Ваш часовий пояс: GMT + 2 Години

Нова тема   Відповісти