Хаос / Chaos (2005) 1080p Ukr/Eng | Sub Eng

Нові коментарі

Нова тема   Відповісти
Автор Повідомлення
Anonymous 







2018-07-31 12:37  
Хаос / Chaos (2005) 1080p Ukr/Eng | Sub Eng

Хаос / Chaos (2005) 1080p Ukr/Eng | Sub Eng


Жанр: екшн, кримінальний, драма, трилер
Країна: Канада, Велика Британія, США



Кінокомпанія: Mobius International, Chaotic Productions, Chaotic Films
Режисер: Тоні Гігліо
Актори: Джейсон Стетхем, Раян Філліп, Веслі Снайпс, Генрі Черні, Джастін Водделл, Ніколас Ліа, Джессіка Стін, Роб ЛаБелль, Джон Кассіні, Деймон Джонсон

Сюжет:
Звичайнісіньким ранком банда грабіжників захоплює банк і бере в заручники всіх, хто в ньому знаходиться. Вожак банди Лоренц вимагає викликати переговірника, наполягаючи на тому, що ним може бути тільки детектив Коннерс. А так як Коннерс в міліції «на поганому рахунку», - до нього приставляють напарника - новачка Деккера.
Доки Коннерс веде переговори, в банк вривається спецназ. В цьому хаосі грабіжникам вдається втекти з банку поміж заручниками. Але найцікавішим виявилось те, що грабіжники не винесли з собою ні єдиного цента. А невдовзі виясняється, що під час облоги і перестрілки з банківських рахунків комп'ютерним шляхом був знятий мільярд доларів. Двоє детективів повинні зловити п'ятірку грабіжників банку, розв'язуючи загадку їхньої змови по ниточках, що ведуть на самий «верх»...


Тривалість: 01:46:50
Якість: 1080p
Відео:
кодек:
розмір кадру: 1920х816
бітрейт: 9 177 кб/с

Аудіо # 1:
мова: українська
переклад: багатоголосий закадровий
кодек: 5.1
бітрейт: 448 кб/с

Аудіо # 2:
мова: англійська
переклад: оригінал
кодек: 5.1
бітрейт: 1509 кб/с

Субтитри:
мова: англійська
тип: програмні (м'які)
формат: *.srt
Info
General
Unique ID : 222756407901890249424499411100195635519 (0xA79552D94CDDABB99489B414B14C413F)
Format :
Format version : Version 4 / Version 2
File size : 8.28 GiB
Duration : 1 h 46 min
Overall bit rate : 11.1 Mb/s
Encoded date : UTC 2018-07-31 09:29:57
Writing application : v6.1.0 ('Old Devil') built on Mar 4 2013 09:10:42
Writing library : libebml v1.3.0 + v1.4.0

Video
ID : 1
Format : AVC
Format/Info : Advanced Video Codec
Format profile : [email protected]
Format settings : CABAC / 5 Ref Frames
Format settings, CABAC : Yes
Format settings, ReFrames : 5 frames
Codec ID : V_MPEG4/ISO/AVC
Duration : 1 h 46 min
Bit rate : 9 177 kb/s
Width : 1 920 pixels
Height : 816 pixels
Display aspect ratio : 2.35:1
Frame rate mode : Constant
Frame rate : 23.976 (24000/1001) FPS
Color space : YUV
Chroma subsampling : 4:2:0
Bit depth : 8 bits
Scan type : Progressive
Bits/(Pixel*Frame) : 0.244
Stream size : 6.66 GiB (80%)
Writing library : core 68 r1190 43773d2
Encoding settings : cabac=1 / ref=5 / deblock=1:-1:-1 / analyse=0x3:0x113 / me=umh / subme=8 / psy_rd=1.0:0.0 / mixed_ref=1 / me_range=16 / chroma_me=1 / trellis=1 / 8x8dct=1 / cqm=0 / deadzone=21,11 / chroma_qp_offset=-2 / threads=6 / nr=0 / decimate=1 / mbaff=0 / bframes=3 / b_pyramid=1 / b_adapt=1 / b_bias=0 / direct=3 / wpredb=1 / keyint=250 / keyint_min=25 / scenecut=40 / rc=2pass / bitrate=9177 / ratetol=1.0 / qcomp=0.60 / qpmin=10 / qpmax=51 / qpstep=4 / cplxblur=20.0 / qblur=0.5 / ip_ratio=1.40 / pb_ratio=1.30 / aq=1:1.10
Language : English
Default : Yes
Forced : No

Audio #1
ID : 2
Format : AC-3
Format/Info : Audio Coding 3
Codec ID : A_AC3
Duration : 1 h 46 min
Bit rate mode : Constant
Bit rate : 448 kb/s
Channel(s) : 6 channels
Channel positions : Front: L C R, Side: L R, LFE
Sampling rate : 48.0 kHz
Frame rate : 31.250 FPS (1536 SPF)
Bit depth : 16 bits
Compression mode : Lossy
Stream size : 342 MiB (4%)
Title : UKR
Language : Ukrainian
Service kind : Complete Main
Default : Yes
Forced : Yes

Audio #2
ID : 3
Format :
Format/Info : Digital Theater Systems
Codec ID : A_DTS
Duration : 1 h 46 min
Bit rate mode : Constant
Bit rate : 1 509 kb/s
Channel(s) : 6 channels
Channel positions : Front: L C R, Side: L R, LFE
Sampling rate : 48.0 kHz
Frame rate : 93.750 FPS (512 SPF)
Bit depth : 24 bits
Compression mode : Lossy
Stream size : 1.13 GiB (14%)
Language : English
Default : No
Forced : No

Text
ID : 4
Format : UTF-8
Codec ID : S_TEXT/UTF8
Codec ID/Info : UTF-8 Plain Text
Language : English
Default : Yes
Forced : No
Скріншоти




За українську доріжку подяка п. JACKUS і TPEM
За українізований постер подяка п. TPEM
Особиста подяка пану denixx за надану матеріальну допомогу на підтримку цього і майбутніх релізів.
Джерело:


 Трекер:    Зареєстрований   

Завантажити / скачати фільм українською



відео для новачків



 Зареєстрований:   2018-07-31 12:37
 Розмір:   8.28 GB 
 Оцінка фільму:   9.4/10 (Голосів: 9)
   
Інші релізи
   Хаос / Chaos (2005) Remux 1080p Ukr/Eng | Sub Eng kryk-v.ya.  3 / 0   19.81 GB   2019-03-29 20:03 
   Хаос / Chaos (2005) 720p Ukr/Eng | sub Eng braveboy  2 / 0   6.42 GB   2014-08-01 03:26 
   Хаос / Chaos (2005) Ukr/Eng | sub Eng JACKUS  6 / 0   2.18 GB   2014-07-29 00:42 
   Хаос / Chaos (2005) TPEM  0 / 0   887 MB   2010-01-15 01:46 
[email protected] 
VIP


З нами з: 25.03.17
Востаннє: 01.04.20
Повідомлень: 476

2019-01-07 00:26  
Цікавий від початку до кінця фільм, вперше бачу щоб Стетхем грав роль поганця. Мені сподобався фільм
Ваш часовий пояс: GMT + 2 Години

Нова тема   Відповісти