Аладдін і король розбійників / Aladdin and the King of Thieves (1996) 1080p Ukr/Eng | Sub Eng

Нові коментарі

Нова тема   Відповісти
Автор Повідомлення
Anonymous 







2018-07-31 06:50  
Аладдін і король розбійників / Aladdin and the King of Thieves (1996) 1080p Ukr/Eng | Sub Eng

Аладдін і король розбійників / Aladdin and the King of Thieves (1996) 1080p Ukr/Eng | Sub Eng


Жанр: анімація, пригодницький, комедія, фантастика, мюзикл, сімейний
Країна: США



Кінокомпанія: Disney Television Animation, Disneytoon Studios
Режисер: Тед Стоунс / Tad Stones
Актори: Вел Беттін / Val Bettin, Джим Каммінґс / Jim Cummings, Ґілберт Ґоттфрід / Gilbert Gottfried, Лінда Ларкін / Linda Larkin, Джеррі Орбах / Jerry Orbach, Джон Ріс-Деві / John Rhys-Davies, Скот Вейнґер / Scott Weinger, Френк Велкер / Frank Welker, Робін Вільямс / Robin Williams, Джеф Бенетт / Jeff Bennett та інші

Сюжет:
Довгоочікувана завершальна частина трилогії про простого злодюжку з Аграби. Всі жителі Аграби дружно готуються до найбільшого свята — ось-ось відбудеться довгоочікуване весілля Аладдін і принцеса Жасмін! Але спочатку нашому герою доведеться зупинити легендарну банду сорока розбійників — адже вони хочуть викрасти весільний подарунок — всевидючого Оракула, за допомогою якого лиходії хочуть відшукати і прибрати до своїх рук всі скарби світу. Аладіна і його нерозлучним друзям — Жасмін, Абу, Килимок і веселунові Джинну доведеться пережити чимало пригод і знайти вихід з самих безвихідних ситуацій в гонитві за Королем Розбійників і його завзятою безжалісною бандою...


Тривалість: 01:21:33
Якість: 1080p
Відео:
кодек:
розмір кадру: 1920х1080
бітрейт: 6120 кб/с

Аудіо # 1:
мова: українська
переклад: професійний дубльований | студія LeDoyen
кодек: 2.0
бітрейт: 192 кб/с

Аудіо # 2:
мова: англійська
переклад: оригінал
кодек: 5.1
бітрейт: 1 509 кб/с

Субтитри:
мова: англійська
тип: програмні (м'які)
формат: *.srt
Info
General
Unique ID : 220614106513949528073311047669018001992 (0xA5F8BB3C4E4FA9DDA0F1C7381E8C0248)
Format :
Format version : Version 4 / Version 2
File size : 4.46 GiB
Duration : 1 h 21 min
Overall bit rate : 7 820 kb/s
Encoded date : UTC 2018-07-31 04:24:28
Writing application : v6.1.0 ('Old Devil') built on Mar 4 2013 09:10:42
Writing library : libebml v1.3.0 + v1.4.0

Video
ID : 1
Format : AVC
Format/Info : Advanced Video Codec
Format profile : [email protected]
Format settings : CABAC / 4 Ref Frames
Format settings, CABAC : Yes
Format settings, ReFrames : 4 frames
Codec ID : V_MPEG4/ISO/AVC
Duration : 1 h 21 min
Bit rate : 6 120 kb/s
Width : 1 920 pixels
Height : 1 080 pixels
Display aspect ratio : 16:9
Frame rate mode : Constant
Frame rate : 23.976 FPS
Color space : YUV
Chroma subsampling : 4:2:0
Bit depth : 8 bits
Scan type : Progressive
Bits/(Pixel*Frame) : 0.123
Stream size : 3.40 GiB (76%)
Writing library : core 148 r2638 7599210
Encoding settings : cabac=1 / ref=4 / deblock=1:0:0 / analyse=0x3:0x133 / me=umh / subme=8 / psy=1 / psy_rd=1.00:0.00 / mixed_ref=1 / me_range=16 / chroma_me=1 / trellis=1 / 8x8dct=1 / cqm=0 / deadzone=21,11 / fast_pskip=0 / chroma_qp_offset=-2 / threads=12 / lookahead_threads=2 / sliced_threads=0 / nr=0 / decimate=1 / interlaced=0 / bluray_compat=0 / constrained_intra=0 / bframes=3 / b_pyramid=2 / b_adapt=1 / b_bias=0 / direct=1 / weightb=1 / open_gop=0 / weightp=2 / keyint=250 / keyint_min=23 / scenecut=40 / intra_refresh=0 / rc_lookahead=40 / rc=2pass / mbtree=1 / bitrate=6120 / ratetol=1.0 / qcomp=0.60 / qpmin=0 / qpmax=69 / qpstep=4 / cplxblur=20.0 / qblur=0.5 / ip_ratio=1.40 / aq=1:1.00
Language : English
Default : Yes
Forced : No
Statistics Tags Issue : v8.5.0 ('Vanishing Act') 64bit 2015-11-24 10:48:08 / v6.1.0 ('Old Devil') built on Mar 4 2013 09:10:42 2018-07-31 04:24:28
FromStats_BitRate : 6116139
FromStats_Duration : 01:21:41.947000000
FromStats_FrameCount : 117529
FromStats_StreamSize : 3747623733

Audio #1
ID : 2
Format : AC-3
Format/Info : Audio Coding 3
Codec ID : A_AC3
Duration : 1 h 21 min
Bit rate mode : Constant
Bit rate : 192 kb/s
Channel(s) : 2 channels
Channel positions : Front: L R
Sampling rate : 48.0 kHz
Frame rate : 31.250 FPS (1536 SPF)
Bit depth : 16 bits
Compression mode : Lossy
Stream size : 112 MiB (2%)
Title : UKR (DUB) - студія LeDoyen
Language : Ukrainian
Service kind : Complete Main
Default : Yes
Forced : Yes

Audio #2
ID : 3
Format :
Format/Info : Digital Theater Systems
Codec ID : A_DTS
Duration : 1 h 21 min
Bit rate mode : Constant
Bit rate : 1 509 kb/s
Channel(s) : 6 channels
Channel positions : Front: L C R, Side: L R, LFE
Sampling rate : 48.0 kHz
Frame rate : 93.750 FPS (512 SPF)
Bit depth : 16 bits
Compression mode : Lossy
Stream size : 882 MiB (19%)
Title : Original
Language : English
Default : No
Forced : No

Text
ID : 4
Format : UTF-8
Codec ID : S_TEXT/UTF8
Codec ID/Info : UTF-8 Plain Text
Title : Eng
Language : English
Default : No
Forced : No
Скріншоти






Особиста подяка пану denixx за надану матеріальну допомогу на підтримку цього і майбутніх релізів.
Джерело: +


Срібний реліз (на рейтинг впливає 50% завантаженого)
 Трекер:    Зареєстрований   

Завантажити / скачати мультфільм українською



відео для новачків



 Зареєстрований:   2018-07-31 06:50
 Розмір:   4.46 GB 
 Оцінка мультфільму:   9.2/10 (Голосів: 14)
   
Ваш часовий пояс: GMT + 2 Години

Нова тема   Відповісти