Ліс привидів / The Forest (2016) 1080p Ukr/Eng | Sub Eng

Нові коментарі

Нова тема   Відповісти
Автор Повідомлення
staf777 
Попереджень: 1
Попереджень: 1 


З нами з: 16.11.16
Востаннє: 13.12.18
Повідомлень: 1909

2018-07-30 18:22  
Ліс привидів / The Forest (2016) 1080p Ukr/Eng | Sub Eng

Ліс привидів / The Forest (2016) 1080p Ukr/Eng | Sub Eng


Жанр: жахи
Країна: США



Кінокомпанія: AI-Film, Lava Bear Films
Режисер: Джейсон Зада
Актори: Наталі Дормер, Тейлор Кінні, Еван Мекен, Стефані Воґт, Норіко Сакура, Юго Ямашіта, Ґен Сето, Юкійоші Озава, Ріна Такасакі, Ібукі Канеда...

Сюжет:
Дія фільму розвивається в легендарному лісі Аокіґагара біля підніжжя гори Фудзі, що на японському острові Хонсю. Американка Сара приїжджає туди, щоб знайти свою сестру-близнюка, яка загадково зникла деякий час тому. Сару попереджають, що сходити зі стежки не можна, але дівчині доводиться покинути безпечну дорогу, оскільки вона вимушена битися з душами мерців, що населяють цей ліс.


Тривалість: 01:33:17
Якість:
Відео:
кодек:
розмір кадру: 1920x1040
бітрейт: 14,4 Mб/с

Аудіо # 1:
мова: українська
переклад: професійний дубльований
кодек: 5.1
бітрейт: 1509 кб/с

Аудіо # 2:
мова: українська
переклад: професійний дубльований
кодек: 5.1
бітрейт: 640 кб/с

Аудіо # 3:
мова: англійська
переклад: оригінал
кодек: 5.1
бітрейт: 1509 кб/с

Субтитри # 1-2:
мова: англійська
тип: програмні (м'які)
формат: *.srt
Info
General
Unique ID : 122524653076266320395453840215865884086 (0x5C2D63CBCD592E7C58F9816A8CC4FDB6)
Complete name : G:\Жахи\The Forest (2016) 1080p [UKR_ENG] [Hurtom].
Format :
Format version : Version 4 / Version 2
File size : 11.8 GiB
Duration : 1 h 33 min
Overall bit rate : 18.1 Mb/s
Movie name : The Forest (2016) 1080p [UKR_ENG] [Hurtom]
Encoded date : UTC 2018-07-30 16:06:52
Writing application : v24.0.0 ('Beyond The Pale') 64-bit
Writing library : libebml v1.3.6 + v1.4.9
Cover : Yes
Attachments : cover.jpg

Video
ID : 1
Format : AVC
Format/Info : Advanced Video Codec
Format profile : [email protected]
Format settings : CABAC / 4 Ref Frames
Format settings, CABAC : Yes
Format settings, ReFrames : 4 frames
Codec ID : V_MPEG4/ISO/AVC
Duration : 1 h 33 min
Bit rate : 14.4 Mb/s
Width : 1 920 pixels
Height : 1 040 pixels
Display aspect ratio : 1.85:1
Frame rate mode : Constant
Frame rate : 23.976 (24000/1001) FPS
Color space : YUV
Chroma subsampling : 4:2:0
Bit depth : 8 bits
Scan type : Progressive
Bits/(Pixel*Frame) : 0.301
Stream size : 9.40 GiB (80%)
Title : The.Forest.2016..1080p.ExKinoRay
Writing library : core 148 r2665+53 6629127 t_mod_Custom [[email protected] X86_64]
Encoding settings : cabac=1 / ref=4 / deblock=1:-3:-3 / analyse=0x3:0x133 / me=umh / subme=10 / psy=1 / fade_compensate=0.00 / psy_rd=1.00:0.00 / mixed_ref=1 / me_range=32 / chroma_me=1 / trellis=2 / 8x8dct=1 / cqm=0 / deadzone=21,11 / fast_pskip=0 / chroma_qp_offset=-2 / threads=8 / lookahead_threads=1 / sliced_threads=0 / nr=0 / decimate=0 / interlaced=0 / bluray_compat=0 / constrained_intra=0 / fgo=0 / bframes=8 / b_pyramid=2 / b_adapt=2 / b_bias=0 / direct=3 / weightb=1 / open_gop=0 / weightp=2 / keyint=250 / keyint_min=23 / scenecut=40 / intra_refresh=0 / rc_lookahead=150 / rc=crf / mbtree=0 / crf=17.0000 / qcomp=0.60 / qpmin=0:0:0 / qpmax=69:69:69 / qpstep=4 / vbv_maxrate=50000 / vbv_bufsize=62500 / crf_max=0.0 / nal_hrd=none / filler=0 / ip_ratio=1.40 / pb_ratio=1.30 / aq=3:0.75 / aq-sensitivity=10.00 / aq-factor=1.00:1.00:1.00 / aq2=0 / aq3=0
Language : English
Default : Yes
Forced : No

Audio #1
ID : 2
Format :
Format/Info : Digital Theater Systems
Codec ID : A_DTS
Duration : 1 h 33 min
Bit rate mode : Constant
Bit rate : 1 509 kb/s
Channel(s) : 6 channels
Channel positions : Front: L C R, Side: L R, LFE
Sampling rate : 48.0 kHz
Frame rate : 93.750 FPS (512 SPF)
Bit depth : 24 bits
Compression mode : Lossy
Stream size : 1 007 MiB (8%)
Title : [UA-DUB- 5/1]
Language : Ukrainian
Default : Yes
Forced : Yes

Audio #2
ID : 3
Format : AC-3
Format/Info : Audio Coding 3
Codec ID : A_AC3
Duration : 1 h 33 min
Bit rate mode : Constant
Bit rate : 640 kb/s
Channel(s) : 6 channels
Channel positions : Front: L C R, Side: L R, LFE
Sampling rate : 48.0 kHz
Frame rate : 31.250 FPS (1536 SPF)
Bit depth : 16 bits
Compression mode : Lossy
Stream size : 427 MiB (4%)
Title : [UA-DUB- 5/1]
Language : Ukrainian
Service kind : Complete Main
Default : No
Forced : No

Audio #3
ID : 4
Format :
Format/Info : Digital Theater Systems
Codec ID : A_DTS
Duration : 1 h 33 min
Bit rate mode : Constant
Bit rate : 1 509 kb/s
Channel(s) : 6 channels
Channel positions : Front: L C R, Side: L R, LFE
Sampling rate : 48.0 kHz
Frame rate : 93.750 FPS (512 SPF)
Bit depth : 24 bits
Compression mode : Lossy
Stream size : 1 007 MiB (8%)
Language : English
Default : No
Forced : No

Text #1
ID : 5
Format : UTF-8
Codec ID : S_TEXT/UTF8
Codec ID/Info : UTF-8 Plain Text
Duration : 1 h 24 min
Bit rate : 33 b/s
Count of elements : 828
Stream size : 20.8 KiB (0%)
Language : English
Default : No
Forced : No

Text #2
ID : 6
Format : UTF-8
Codec ID : S_TEXT/UTF8
Codec ID/Info : UTF-8 Plain Text
Duration : 1 h 25 min
Bit rate : 40 b/s
Count of elements : 1039
Stream size : 25.4 KiB (0%)
Title : SDH
Language : English
Default : No
Forced : No

Menu
00:00:00.000 : en:Chapter 1
00:05:31.998 : en:Chapter 2
00:09:30.236 : en:Chapter 3
00:15:37.353 : en:Chapter 4
00:19:23.954 : en:Chapter 5
00:23:38.375 : en:Chapter 6
00:28:57.194 : en:Chapter 7
00:34:14.970 : en:Chapter 8
00:36:58.258 : en:Chapter 9
00:40:25.673 : en:Chapter 10
00:43:56.133 : en:Chapter 11
00:48:47.633 : en:Chapter 12
00:53:20.489 : en:Chapter 13
00:59:39.117 : en:Chapter 14
01:02:35.085 : en:Chapter 15
01:07:20.161 : en:Chapter 16
01:11:33.331 : en:Chapter 17
01:16:26.999 : en:Chapter 18
01:21:35.057 : en:Chapter 19
01:26:54.334 : en:Chapter 20
Скріншоти




Подяка пану AngryBirdsUA за доріжку та пану Hanway за синхронізацію.
Джерело: &
Особиста оцінка: 0 - не дивився


 Трекер:    Зареєстрований   

Завантажити / скачати фільм українською



відео для новачків



 Зареєстрований:   2018-07-30 18:22
 Розмір:   11.78 GB 
 Оцінка фільму:   5/10 (Голосів: 2)
   
Інші релізи
   Ліс привидів / The Forest (2016) 720p Ukr/Eng | Sub Eng 11FrYkT  1 / 0   6.21 GB   2018-07-30 21:00 
   Ліс привидів / The Forest (2016) AVC Ukr/Eng | Sub Eng 11FrYkT  3 / 0   2.18 GB   2018-07-30 16:47 
   Ліс привидів / The Forest (2016) Ukr/Eng Covenant  3 / 0   1.45 GB   2016-06-26 21:35 
igor911 
Відео Гуртом
Відео Гуртом


З нами з: 18.01.08
Востаннє: 13.12.18
Повідомлень: 11582

2018-07-30 20:29  
"золото" на тиждень для заохочення підтримки.
hetzendorf 
Попереджень: 1
Попереджень: 1 


З нами з: 23.07.15
Востаннє: 13.12.18
Повідомлень: 1550

2018-09-24 01:00  
Щоби на такому матеріалі — жахи, Японія й природа гарна — й отаку фігню зліпити >_<
2/10

Ваш часовий пояс: GMT + 2 Години

Нова тема   Відповісти