Великий татко / Big Daddy (1999) 1080p 2xUkr/Eng | Sub Eng

Нові коментарі

Нова тема   Відповісти
Автор Повідомлення
Anonymous 







2018-07-30 18:56  
Великий татко / Big Daddy (1999) 1080p 2xUkr/Eng | Sub Eng

Великий татко / Big Daddy (1999) 1080p 2xUkr/Eng | Sub Eng


Жанр: драма, комедія
Країна: США



Кінокомпанія: Jack Giarraputo Productions, Out of the Blue... Entertainment
Режисер: Денніс Дуган
Актори: Адам Сендлер, Джої Лорен Едамс, Джон Стюарт, Роб Шнайдер, Крісті Суонсон, Коул Спроус, Ділан Спроус, Джош Мостел, Леслі Манн, Ален Коверт

Сюжет:
Тридцятидворічний Сонні Куфакс, випускник юридичної школи, безтурботно живе у своїй гарній квартирі на Манхеттені і ніяк не хоче подорослішати. Працювати він теж не дуже хоче, і успішно проживає раніше зароблені гроші. Друзі одружуються, заводять дітей. У них нові турботи, нові обов'язки. Життя змінюється, а Сонні ніяк не хоче цього зрозуміти. Навіть безмежному терпінню його подруги приходить кінець: вона йде, не в силах більше виносити його несамостійність. Сонні розуміє: настав час рішучих дій. І… усиновляє п'ятирічного хлопчика Джуліана.


Тривалість: 01:33:05
Якість: 1080p
Відео:
кодек:
розмір кадру: 1920х1038
бітрейт: 10,8 Мб/с

Аудіо # 1:
мова: українська
переклад: багатоголосий закадровий ,
кодек: 2.0
бітрейт: 192 кб/с

Аудіо # 2:
мова: українська
переклад: багатоголосий закадровий
кодек: 2.0
бітрейт: 192 кб/с

Аудіо # 3:
мова: англійська
переклад: оригінал
кодек: 2.0
бітрейт: 448 кб/с

Субтитри:
мова: англійська
тип: програмні (м'які)
формат: *.srt
Info
General
Unique ID : 184354365402856080352847279023107008212 (0x8AB15BF92B972F65AF1BB12BF16EE6D4)
Format :
Format version : Version 4 / Version 2
File size : 7.53 GiB
Duration : 1 h 33 min
Overall bit rate : 11.6 Mb/s
Encoded date : UTC 2018-07-30 15:40:40
Writing application : v6.1.0 ('Old Devil') built on Mar 4 2013 09:10:42
Writing library : libebml v1.3.0 + v1.4.0

Video
ID : 1
Format : AVC
Format/Info : Advanced Video Codec
Format profile : [email protected]
Format settings : CABAC / 4 Ref Frames
Format settings, CABAC : Yes
Format settings, ReFrames : 4 frames
Codec ID : V_MPEG4/ISO/AVC
Duration : 1 h 33 min
Bit rate : 10.8 Mb/s
Width : 1 920 pixels
Height : 1 038 pixels
Display aspect ratio : 1.85:1
Frame rate mode : Constant
Frame rate : 23.976 (24000/1001) FPS
Color space : YUV
Chroma subsampling : 4:2:0
Bit depth : 8 bits
Scan type : Progressive
Bits/(Pixel*Frame) : 0.226
Stream size : 6.84 GiB (91%)
Writing library : core 138 r2358 9e941d1
Encoding settings : cabac=1 / ref=4 / deblock=1:-1:-1 / analyse=0x3:0x133 / me=umh / subme=10 / psy=1 / psy_rd=1.00:0.00 / mixed_ref=1 / me_range=32 / chroma_me=1 / trellis=2 / 8x8dct=1 / cqm=0 / deadzone=21,11 / fast_pskip=0 / chroma_qp_offset=-2 / threads=6 / lookahead_threads=1 / sliced_threads=0 / nr=0 / decimate=1 / interlaced=0 / bluray_compat=0 / constrained_intra=0 / bframes=10 / b_pyramid=2 / b_adapt=2 / b_bias=0 / direct=3 / weightb=1 / open_gop=0 / weightp=2 / keyint=240 / keyint_min=24 / scenecut=40 / intra_refresh=0 / rc_lookahead=50 / rc=2pass / mbtree=0 / bitrate=10782 / ratetol=2.0 / qcomp=1.00 / qpmin=0 / qpmax=51 / qpstep=4 / cplxblur=20.0 / qblur=0.5 / vbv_maxrate=50000 / vbv_bufsize=62500 / nal_hrd=none / ip_ratio=1.40 / pb_ratio=1.30 / aq=1:1.00
Language : English
Default : Yes
Forced : No
Color range : Limited
Color primaries : BT.709
Transfer characteristics : BT.709
Matrix coefficients : BT.709

Audio #1
ID : 2
Format : AC-3
Format/Info : Audio Coding 3
Codec ID : A_AC3
Duration : 1 h 33 min
Bit rate mode : Constant
Bit rate : 192 kb/s
Channel(s) : 2 channels
Channel positions : Front: L R
Sampling rate : 48.0 kHz
Frame rate : 31.250 FPS (1536 SPF)
Bit depth : 16 bits
Compression mode : Lossy
Stream size : 128 MiB (2%)
Title : UKR (Новий, ТРК "Україна")
Language : Ukrainian
Service kind : Complete Main
Default : Yes
Forced : Yes

Audio #2
ID : 3
Format : AC-3
Format/Info : Audio Coding 3
Codec ID : A_AC3
Duration : 1 h 33 min
Bit rate mode : Constant
Bit rate : 192 kb/s
Channel(s) : 2 channels
Channel positions : Front: L R
Sampling rate : 48.0 kHz
Frame rate : 31.250 FPS (1536 SPF)
Bit depth : 16 bits
Compression mode : Lossy
Stream size : 128 MiB (2%)
Title : UKR (Парамаунт )
Language : Ukrainian
Service kind : Complete Main
Default : No
Forced : No

Audio #3
ID : 4
Format : AC-3
Format/Info : Audio Coding 3
Codec ID : A_AC3
Duration : 1 h 33 min
Bit rate mode : Constant
Bit rate : 448 kb/s
Channel(s) : 2 channels
Channel positions : Front: L R
Sampling rate : 48.0 kHz
Frame rate : 31.250 FPS (1536 SPF)
Bit depth : 16 bits
Compression mode : Lossy
Stream size : 298 MiB (4%)
Language : English
Service kind : Complete Main
Default : No
Forced : No

Text #1
ID : 5
Format : UTF-8
Codec ID : S_TEXT/UTF8
Codec ID/Info : UTF-8 Plain Text
Language : English
Default : No
Forced : No

Text #2
ID : 6
Format : UTF-8
Codec ID : S_TEXT/UTF8
Codec ID/Info : UTF-8 Plain Text
Title : US - SDH
Language : English
Default : No
Forced : No

Menu
00:00:00.000 : en:00:00:00.000
00:04:06.246 : en:00:04:06.246
00:11:56.341 : en:00:11:56.341
00:18:39.201 : en:00:18:39.201
00:23:40.919 : en:00:23:40.919
00:30:05.095 : en:00:30:05.095
00:37:39.174 : en:00:37:39.174
00:42:12.905 : en:00:42:12.905
00:46:12.687 : en:00:46:12.687
00:51:48.689 : en:00:51:48.689
00:56:18.750 : en:00:56:18.750
01:02:59.442 : en:01:02:59.442
01:07:07.190 : en:01:07:07.190
01:09:45.932 : en:01:09:45.932
01:16:09.523 : en:01:16:09.523
01:23:23.332 : en:01:23:23.332
Скріншоти





За запис звуку з ТБ подяка: Bohdan237 (доріжка №1), Neytreenor (доріжка №2)
Особиста подяка пану denixx за надану матеріальну допомогу на підтримку цього і майбутніх релізів.
Джерело:


Срібний реліз (на рейтинг впливає 50% завантаженого)
 Трекер:    Зареєстрований   

Завантажити / скачати фільм українською



відео для новачків



 Зареєстрований:   2018-07-30 18:56
 Розмір:   7.53 GB 
 Оцінка фільму:   9.7/10 (Голосів: 6)
   
Інші релізи
   Великий татко / Big Daddy (1999) AVC 2xUkr/Eng | Sub Eng staf777  5 / 0   2.65 GB   2020-01-19 14:26 
   Великий татко / Big Daddy (1999) 2xUkr/Eng Arsenfpu  6 / 0   1.77 GB   2018-07-30 08:31 
   Великий тато / Big Daddy (1999) AVC igrik09  4 / 0   1.79 GB   2012-03-06 17:17 
iamasportsgirl98 
Новенький


З нами з: 17.01.18
Востаннє: 27.09.20
Повідомлень: 9

2019-12-01 14:29  
ще є тут хтось живий? від п'ятниці нічого не завантажилось(((
Ваш часовий пояс: GMT + 2 Години

Нова тема   Відповісти