Красуня на всю голову / I Feel Pretty (2018)

Нові коментарі

Нова тема   Відповісти
Автор Повідомлення
igor911 
Відео Гуртом
Відео Гуртом


З нами з: 18.01.08
Востаннє: 25.04.19
Повідомлень: 12341

2018-07-30 13:48  
Красуня на всю голову / I Feel Pretty (2018)



Жанр: комедія
Країна: Китай, США



Кінокомпанія: Huayi Brothers Pictures, Voltage Pictures, Wonderland Sound and Vision
Режисер: Еббі Кон, Марк Сілверштейн
Актори: Емі Бет Шумер / Amy Schumer, Мішель Вільямс / Michelle Williams, Том Хоппер / Tom Hopper, Рорі Сковел / Rory Scovel, Адріан Мартінез / Adrian Martinez, Емілі Ратаковскі / Emily Ratajkowski, Ейді Брайант / Aidy Bryant, Бьюзі Філіппс / Busy Philipps, Лорен Хаттон / Lauren Hutton та інші

Сюжет:
Її життя складалося із дієт, фітнесу та постійного вдосконалення своєї зовнішності... «Гарна спроба», — вирішив Всесвіт та скинув дівчину з велотренажера. Вона вдарилася головою, проте здобула впевненість у тому, що вона найпривабливіша! Невеличка проблема — в очах інших людей вона не змінилась ані краплі… Проте саме ця неймовірна впевненість у собі допоможе дівчині знайти кохання, досягти кар’єрних вершин та повністю змінити своє життя.
Офіційні українські трейлер та відео:




Рейтинг MPAA: PG-13 - дітям до 13 років перегляд не бажаний
Вікова категорія: 12+

Тривалість: 01:50:09
Якість:

Відео:
кодек:
розмір кадру: 720 х 304
бітрейт: 1487 кб/с

Аудіо:
мова: українська
переклад: професійний дубльований | студія Postmodern
кодек: 5.1
бітрейт: 384 кб/с
Інформація про дубляж
Переклад: Олексій Здражевський
Режисер дубляжу: Павло Скороходько
Звукорежисер: Денис Подляський
Звукорежисер перезапису: Юрій Антонов
Ролі дублювали: Юлія Перенчук, Роман Чорний, Ганна Кузіна, Микола Сирокваш, Наталя Романько, Катерина Буцька, Катерина Брайковська, Юрій Ребрик, Ірина Дорошенко та інші.

Фільм дубльовано компанією Postmodern на замовлення "Вольга Україна".
Info
Код:
General
Complete name               : I Feel Pretty (2018) [Ukr] [Hurtom].avi
Format                      : AVI
Format/Info                 : Audio Video Interleave
File size                   : 1.46 GiB
Duration                    : 1 h 50 min
Overall bit rate            : 1 881 kb/s
Movie name                  : Красуня на всю голову / I Feel Pretty (2018) [Ukr] [Hurtom]
Genre                       : комедія
Recorded date               : 30.07.2018
Writing application         : VirtualDubModUkr 1.5.10.2 (build 2542/release)
Writing library             : VirtualDubMod build 2542/release
Comment                     : https://toloka.to/t93833

Video
ID                          : 0
Format                      : MPEG-4 Visual
Format profile              : Advanced [email protected]
Format settings             : BVOP1 / Custom Matrix
Format settings, BVOP       : 1
Format settings, QPel       : No
Format settings, GMC        : No warppoints
Format settings, Matrix     : Custom
Codec ID                    :
Codec ID/Hint               :
Duration                    : 1 h 50 min
Bit rate                    : 1 488 kb/s
Width                       : 720 pixels
Height                      : 304 pixels
Display aspect ratio        : 2.35:1
Frame rate                  : 23.976 (24000/1001) FPS
Color space                 : YUV
Chroma subsampling          : 4:2:0
Bit depth                   : 8 bits
Scan type                   : Progressive
Compression mode            : Lossy
Bits/(Pixel*Frame)          : 0.283
Stream size                 : 1.15 GiB (79%)
Writing library             : 73

Audio
ID                          : 1
Format                      : AC-3
Format/Info                 : Audio Coding 3
Codec ID                    : 2000
Duration                    : 1 h 50 min
Bit rate mode               : Constant
Bit rate                    : 384 kb/s
Channel(s)                  : 6 channels
Channel positions           : Front: L C R, Side: L R, LFE
Sampling rate               : 48.0 kHz
Frame rate                  : 31.250 FPS (1536 SPF)
Bit depth                   : 16 bits
Compression mode            : Lossy
Stream size                 : 305 MiB (20%)
Alignment                   : Split accross interleaves
Interleave, duration        : 42  ms (1.00 video frame)
Interleave, preload duratio : 500  ms
Title                       : UKR DUB [Postmodern, іТunеs]
Service kind                : Complete Main


Джерело: & &


 Трекер:    Зареєстрований   

Завантажити / скачати фільм українською



відео для новачків



 Зареєстрований:   2018-07-30 16:04
 Розмір:   1.46 GB 
 Оцінка фільму:   8.8/10 (Голосів: 61)
   
Custo 12 
Свій


З нами з: 08.11.16
Востаннє: 23.04.19
Повідомлень: 88

2018-07-30 16:18  
Дуже слабо, Емі. Давай спочатку.
alonzo 
VIP


З нами з: 30.08.15
Востаннє: 24.04.19
Повідомлень: 256

2018-07-30 19:28  
вдячний за аві для заліза , фільм бомба - я тішився як мала дитина !
julia mel 
Новенький


З нами з: 06.09.13
Востаннє: 20.04.19
Повідомлень: 7

2018-07-30 23:25  
Хороша комедія, мені сподобалася :-)
miramaxx 
Частий відвідувач


З нами з: 18.05.11
Востаннє: 24.04.19
Повідомлень: 47

2018-07-30 23:49  
кесь добряцьке не дуже смішне дівчаче мило.
andriy_nv 
VIP


З нами з: 27.06.08
Востаннє: 24.04.19
Повідомлень: 859

2018-08-23 18:42  
Чудова комедія з глибоким змістом! Wink (2)
an.j. 
Свій


З нами з: 20.10.12
Востаннє: 23.04.19
Повідомлень: 85

2019-01-21 13:48  
дружині сподобалось, а мені було нудно
eevviill 
Свій


З нами з: 13.08.08
Востаннє: 24.04.19
Повідомлень: 131

2019-03-20 18:42  
Було трошки смішно.
Очікував кращого.
7.1

Ваш часовий пояс: GMT + 2 Години

Нова тема   Відповісти