Вціліла / Survivor (2015) 1080p Ukr/Eng | Sub Eng

Нові коментарі

Нова тема   Відповісти
Автор Повідомлення
Anonymous 







2018-07-30 10:08  
Вціліла / Survivor (2015) 1080p Ukr/Eng | Sub Eng

Вціліла / Survivor (2015) 1080p Ukr/Eng | Sub Eng


Жанр: бойовик, трилер
Країна: США, Велика Британія



Кінокомпанія: Nu Image Films, Millennium Films, Winkler Films
Режисер: Джеймс МакТіг
Актори: Мілла Йовович, Пірс Броснан, Ділан МакДермотт, Анджела Бассетт, Джеймс Д`Арсі, Антонія Томас, Френсіс де ла Тур, Роберт Форстер, Роджер Ріс, Корі Джонсон

Сюжет:
Історія розгортається навколо співробітниці Держдепартаменту США, яка була відправлена своїм керівництвом в американське посольство в Лондоні, щоб запобігти проникненню в країну терористів. Однак все пішло не так, як планувалося: несподівано героїня сама стає однією з головних підозрюваних. За злочини, в яких її звинувачують - смертна кара, тому вона тікає, щоб довести свою невинність, а також запобігти терористичній атаці на Нью-Йорк в переддень Різдва ....


Тривалість: 01:36:28
Якість:
Відео:
кодек:
розмір кадру: 1920х808
бітрейт: 9286 кб/с

Аудіо # 1:
мова: українська
переклад: багатоголосий закадровий
кодек: 2.0
бітрейт: 192 кб/с

Аудіо # 2:
мова: англійська
переклад: оригінал
кодек: 5.1
бітрейт: 448 кб/с

Субтитри:
мова: англійська
тип: програмні (м'які)
формат: *.srt
Info
General
Unique ID : 195753174538997865668693412453429879806 (0x9344B0A777AFFECF8DD2A596F21523FE)
Format :
Format version : Version 4 / Version 2
File size : 6.69 GiB
Duration : 1 h 36 min
Overall bit rate : 9 922 kb/s
Encoded date : UTC 2018-07-30 08:03:42
Writing application : v6.1.0 ('Old Devil') built on Mar 4 2013 09:10:42
Writing library : libebml v1.3.0 + v1.4.0

Video
ID : 1
Format : AVC
Format/Info : Advanced Video Codec
Format profile : [email protected]
Format settings : CABAC / 5 Ref Frames
Format settings, CABAC : Yes
Format settings, ReFrames : 5 frames
Codec ID : V_MPEG4/ISO/AVC
Duration : 1 h 36 min
Bit rate : 9 286 kb/s
Width : 1 920 pixels
Height : 808 pixels
Display aspect ratio : 2.40:1
Frame rate mode : Constant
Frame rate : 23.976 FPS
Color space : YUV
Chroma subsampling : 4:2:0
Bit depth : 8 bits
Scan type : Progressive
Bits/(Pixel*Frame) : 0.250
Stream size : 6.12 GiB (92%)
Writing library : core 146 r2538 121396c
Encoding settings : cabac=1 / ref=5 / deblock=1:0:0 / analyse=0x3:0x133 / me=umh / subme=7 / psy=1 / psy_rd=1.00:0.00 / mixed_ref=1 / me_range=16 / chroma_me=1 / trellis=1 / 8x8dct=1 / cqm=0 / deadzone=21,11 / fast_pskip=0 / chroma_qp_offset=-2 / threads=60 / lookahead_threads=6 / sliced_threads=0 / nr=0 / decimate=1 / interlaced=0 / bluray_compat=0 / constrained_intra=0 / bframes=3 / b_pyramid=2 / b_adapt=2 / b_bias=0 / direct=3 / weightb=1 / open_gop=0 / weightp=2 / keyint=250 / keyint_min=23 / scenecut=40 / intra_refresh=0 / rc_lookahead=50 / rc=2pass / mbtree=1 / bitrate=9286 / ratetol=1.0 / qcomp=0.60 / qpmin=0 / qpmax=69 / qpstep=4 / cplxblur=20.0 / qblur=0.5 / ip_ratio=1.40 / aq=1:1.00
Language : English
Default : Yes
Forced : No
Statistics Tags Issue : v7.2.0 ('On Every Street') 64bit built on Sep 13 2014 15:52:10 2015-06-04 04:31:41 / v6.1.0 ('Old Devil') built on Mar 4 2013 09:10:42 2018-07-30 08:03:42
FromStats_BitRate : 9279453
FromStats_Duration : 01:36:27.792000000
FromStats_FrameCount : 138768
FromStats_StreamSize : 6713443155

Audio #1
ID : 2
Format : AC-3
Format/Info : Audio Coding 3
Codec ID : A_AC3
Duration : 1 h 36 min
Bit rate mode : Constant
Bit rate : 192 kb/s
Channel(s) : 2 channels
Channel positions : Front: L R
Sampling rate : 48.0 kHz
Frame rate : 31.250 FPS (1536 SPF)
Bit depth : 16 bits
Compression mode : Lossy
Stream size : 132 MiB (2%)
Title : UKR (2+2)
Language : Ukrainian
Service kind : Complete Main
Default : Yes
Forced : Yes

Audio #2
ID : 3
Format : AC-3
Format/Info : Audio Coding 3
Codec ID : A_AC3
Duration : 1 h 36 min
Bit rate mode : Constant
Bit rate : 448 kb/s
Channel(s) : 6 channels
Channel positions : Front: L C R, Side: L R, LFE
Sampling rate : 48.0 kHz
Frame rate : 31.250 FPS (1536 SPF)
Bit depth : 16 bits
Compression mode : Lossy
Stream size : 309 MiB (5%)
Title : Original
Language : English
Service kind : Complete Main
Default : No
Forced : No
Statistics Tags Issue : v7.2.0 ('On Every Street') 64bit built on Sep 13 2014 15:52:10 2015-06-04 04:31:41 / v6.1.0 ('Old Devil') built on Mar 4 2013 09:10:42 2018-07-30 08:03:42
FromStats_BitRate : 448000
FromStats_Duration : 01:36:27.840000000
FromStats_FrameCount : 180870
FromStats_StreamSize : 324119040

Text
ID : 4
Format : UTF-8
Codec ID : S_TEXT/UTF8
Codec ID/Info : UTF-8 Plain Text
Title : ENG
Language : English
Default : Yes
Forced : No

Menu
00:00:00.000 : en:00:00:00.000
00:07:14.559 : en:00:07:14.559
00:16:04.672 : en:00:16:04.672
00:24:17.581 : en:00:24:17.581
00:32:13.890 : en:00:32:13.890
00:39:44.299 : en:00:39:44.299
00:47:37.480 : en:00:47:37.480
00:56:07.030 : en:00:56:07.030
01:03:35.186 : en:01:03:35.186
01:11:51.265 : en:01:11:51.265
01:19:03.489 : en:01:19:03.489
01:27:43.258 : en:01:27:43.258
Скріншоти






За запис звуку з ТБ дякуємо пану Krigg070
Особиста подяка пану denixx за надану матеріальну допомогу на підтримку цього і майбутніх релізів.
Джерело:


 Трекер:    Зареєстрований   

Завантажити / скачати фільм українською



відео для новачків



 Зареєстрований:   2018-07-30 10:08
 Розмір:   6.69 GB 
 Оцінка фільму:   8.7/10 (Голосів: 12)
   
Інші релізи
   Вціліла / Survivor (2015) 720p Ukr/Eng | Sub Eng staf777  5 / 0   4.5 GB   2018-09-15 15:07 
   Вціліла / Survivor (2015) AVC Ukr/Eng | Sub Eng staf777  9 / 0   2.05 GB   2018-09-15 09:39 
   Вціліла / Survivor (2015) igor911  17 / 0   1.29 GB   2018-09-11 09:00 
tetna 
VIP


З нами з: 21.11.14
Востаннє: 10.12.18
Повідомлень: 544

2018-07-30 11:45  
"Вціліла" ...
lightinsight 
Свій


З нами з: 07.04.14
Востаннє: 10.12.18
Повідомлень: 100

2018-07-30 14:15  
tetna
Так,"та, що вижила" набагато краще.

tetna 
VIP


З нами з: 21.11.14
Востаннє: 10.12.18
Повідомлень: 544

2018-07-30 17:06  
lightinsight
Та чо, є таке слово. Було інше, гірше.

Myk1209 
VIP


З нами з: 04.02.12
Востаннє: 10.12.18
Повідомлень: 292

2018-08-06 08:06  
AVI планується?
Anonymous 







2018-08-06 08:45  
Myk1209
від мене - ні

LO2010 
Свій


З нами з: 16.02.10
Востаннє: 08.12.18
Повідомлень: 76

2018-09-10 21:42  
Шкода. не маю кінотеатра, а ні великого екрана для такого великого файлу (. Його б раз в 5 стиснути....
igor911 
Відео Гуртом
Відео Гуртом


З нами з: 18.01.08
Востаннє: 10.12.18
Повідомлень: 11553

2018-09-11 20:37  
LO2010, див. https://toloka.to/t95002
Ваш часовий пояс: GMT + 2 Години

Нова тема   Відповісти