Формула 1. Сезон 2018. Етап 12. Гран-Прі Угорщини. Гонка (29.07.2018) 1080p

Нові коментарі

Нова тема   Відповісти
Автор Повідомлення
sergiyko.5 
VIP


З нами з: 25.02.16
Востаннє: 20.10.20
Повідомлень: 3579

2018-07-29 22:08  
Формула 1. Сезон 2018. Етап 12. Гран-Прі Угорщини. Гонка (29.07.2018) 1080p


Формула 1. Сезон 2018. Етап 12. Гран-Прі Угорщини. Гонка (29.07.2018) 1080p

Жанр: Перегони Формули 1
Країна: Німеччина
Телеканал: Перший автомобільний
Коментатор: Максим Подзігун

Опис:
Гонка дванадцятого етапу Гран-Прі Угорщини 2018 року.


Тривалість: 02:04:15
Якість:

Відео: кодек: розмір кадру: 1920 х 1080 бітрейт: 7951 кб/с
Аудіо: мова: українська кодек: 2.0 бітрейт: 192 кб/с
Про файл:

General
Unique ID : 137046575270651588653915539510321714815 (0x671A35D6CEA03213A9C50E19A723967F)
Complete name : D:\Torrents\SPORT\Formula 1\F1.2018.Race\F1.2018.12.Hungarian.Race.1080p..Ukr.
Format :
Format version : Version 4 / Version 2
File size : 7.07 GiB
Duration : 2 h 4 min
Overall bit rate : 8 146 kb/s
Encoded date : UTC 2018-07-29 19:00:37
Writing application : v24.0.0 ('Beyond The Pale') 64-bit
Writing library : libebml v1.3.6 + v1.4.9

Video
ID : 1
Format : AVC
Format/Info : Advanced Video Codec
Format profile : [email protected]
Format settings : CABAC / 4 Ref Frames
Format settings, CABAC : Yes
Format settings, ReFrames : 4 frames
Format settings, GOP : M=4, N=28
Codec ID : V_MPEG4/ISO/AVC
Duration : 2 h 4 min
Bit rate : 7 951 kb/s
Width : 1 920 pixels
Height : 1 080 pixels
Display aspect ratio : 16:9
Frame rate mode : Constant
Frame rate : 25.000 FPS
Color space : YUV
Chroma subsampling : 4:2:0
Bit depth : 8 bits
Scan type : Progressive
Bits/(Pixel*Frame) : 0.153
Stream size : 6.90 GiB (98%)
Title : F1 2018 12 Hungarian Race
Language : English
Default : Yes
Forced : No

Audio
ID : 2
Format :
Format/Info : Advanced Audio Codec
Format profile : LC
Codec ID : A_AAC-2
Duration : 2 h 4 min
Bit rate : 192 kb/s
Channel(s) : 2 channels
Channel positions : Front: L R
Sampling rate : 44.1 kHz
Frame rate : 43.066 FPS (1024 SPF)
Compression mode : Lossy
Stream size : 171 MiB (2%)
Title : 1 Авто | Максим Подзігун
Language : Ukrainian
Default : Yes
Forced : No
Скріншоти:


Автор запису: Callistus


 Трекер:    Зареєстрований   

Завантажити / скачати торрент



відео для новачків



 Зареєстрований:   2018-07-29 22:08
 Розмір:   7.07 GB 
 Оцінка:   9.6/10 (Голосів: 22)
   
forsage29 
Новенький


З нами з: 25.07.12
Востаннє: 18.10.20
Повідомлень: 20

2018-07-29 22:25  
УУУУУУ!!!! Дякую, sergiyko.5 !!!
VicCob 
Свій


З нами з: 16.06.10
Востаннє: 11.10.20
Повідомлень: 57

2018-07-29 22:48  
Дякую, довго чекав
Gregg 
Новенький


З нами з: 03.03.09
Востаннє: 20.10.20
Повідомлень: 1

2018-07-30 00:07  
Дякую!!!
Ваш часовий пояс: GMT + 2 Години

Нова тема   Відповісти