Дикун / Gauguin - Voyage de Tahiti (2017)

Нові коментарі

Нова тема   Відповісти
Автор Повідомлення
Anonymous 







2018-07-29 20:50  
Дикун / Gauguin - Voyage de Tahiti (2017)



Жанр: біографічний, драма, мелодрама
Країна: Франція



Кінокомпанія: Studio Canal, Canal+, Move Movie, NJJ Entertainment, 120 Films, Ciné+
Режисер: Едуард Делюк / Edouard Deluc
Актори: Венсан Касель / Vincent Cassel, Тухей Адамс / Tuheï Adams, Малік Зіді / Malik Zidi, Пернілла Бергендорф / Pernille Bergendorff, Марк Барбе / Marc Barbé, Пуа-Тай Гікутіні / Pua-Taï Hikutini, Поль Жансон / Paul Jeanson, Седрик Екхаут / Cédric Eeckhout, Самуель Жуй / Samuel Jouy, Скалі Делпейрат / Scali Delpeyrat та інші

Сюжет:
Поль Гоген (Венсан Кассель) до семи років жив у Перу, на батьківщині своєї матері. І на все подальше життя зберіг відношення до благ цивілізації як до чогось зайвого, набутого помилково. Поль одружився, став батьком п’ятьох дітей, майстерним художником. Та прагнення бути ближчим до незайманої природи його не полишало. Можливо тому серед його робіт так багато пейзажів? Коли його родина стикнулася з фінансовими проблемами, Поль поїхав на заробітки на будівництво Панамського каналу, а потім на острів Таїті, де він і прожив до кінця своїх днів.
Офіційні українські тизер та трейлер:




Вікова категорія: 16+

Тривалість: 01:40:52
Якість:
Відео:
кодек:
розмір кадру: 720 х 304
бітрейт: 1677 кб/с

Аудіо:
мова: українська
переклад: професійний дубльований
кодек: 2.0 (стерео)
бітрейт: 192 кб/с
Info
Код:
General
Complete name               : Gauguin - Voyage de Tahiti (2017) [Ukr] [Hurtom].avi
Format                      : AVI
Format/Info                 : Audio Video Interleave
File size                   : 1.32 GiB
Duration                    : 1 h 40 min
Overall bit rate            : 1 878 kb/s
Movie name                  : Дикун / Gauguin - Voyage de Tahiti (2017) [Ukr] [Hurtom]
Genre                       : біографічний, драма, мелодрама
Recorded date               : 29.07.2018
Writing application         : VirtualDubModUkr 1.5.10.2 (build 2542/release)
Writing library             : VirtualDubMod build 2542/release
Comment                     : https://toloka.to/t93819

Video
ID                          : 0
Format                      : MPEG-4 Visual
Format profile              : Advanced [email protected]
Format settings             : BVOP1 / Custom Matrix
Format settings, BVOP       : 1
Format settings, QPel       : No
Format settings, GMC        : No warppoints
Format settings, Matrix     : Custom
Codec ID                    :
Codec ID/Hint               :
Duration                    : 1 h 40 min
Bit rate                    : 1 677 kb/s
Width                       : 720 pixels
Height                      : 304 pixels
Display aspect ratio        : 2.35:1
Frame rate                  : 24.000 FPS
Color space                 : YUV
Chroma subsampling          : 4:2:0
Bit depth                   : 8 bits
Scan type                   : Progressive
Compression mode            : Lossy
Bits/(Pixel*Frame)          : 0.319
Stream size                 : 1.18 GiB (89%)
Writing library             : 73

Audio
ID                          : 1
Format                      : AC-3
Format/Info                 : Audio Coding 3
Codec ID                    : 2000
Duration                    : 1 h 40 min
Bit rate mode               : Constant
Bit rate                    : 192 kb/s
Channel(s)                  : 2 channels
Channel positions           : Front: L R
Sampling rate               : 48.0 kHz
Frame rate                  : 31.250 FPS (1536 SPF)
Bit depth                   : 16 bits
Compression mode            : Lossy
Stream size                 : 139 MiB (10%)
Alignment                   : Split accross interleaves
Interleave, duration        : 42  ms (1.00 video frame)
Interleave, preload duratio : 500  ms
Title                       : UKR DUB [stereo]
Service kind                : Complete Main





Джерело: & &
Подяка Hanway'ю за синхронізацію.


 Трекер:    Зареєстрований   

Завантажити / скачати фільм українською



відео для новачків



 Зареєстрований:   2018-07-29 21:01
 Розмір:   1.32 GB 
 Оцінка фільму:   8.7/10 (Голосів: 10)
   
Інші релізи
   Дикун / Gauguin - Voyage de Tahiti (2017) Remux 1080p Ukr/Fre staf777  1 / 0   23.81 GB   2018-07-29 23:20 
   Дикун / Gauguin - Voyage de Tahiti (2017) 1080p Ukr/Fre staf777  2 / 0   9.64 GB   2018-07-29 21:24 
   Дикун / Gauguin - Voyage de Tahiti (2017) 720p Ukr/Fre | Sub Eng igor911  1 / 0   4.26 GB   2018-07-29 20:42 
   Дикун / Gauguin - Voyage de Tahiti (2017) AVC Ukr/Fre uafilm.tv  4 / 0   1.86 GB   2018-07-29 19:09 
Ваш часовий пояс: GMT + 2 Години

Нова тема   Відповісти