Дикун / Gauguin - Voyage de Tahiti (2017) Remux 1080p Ukr/Fre

Нові коментарі

Нова тема   Відповісти
Автор Повідомлення
staf777 
Відео Гуртом - підтримка та поширення
Відео Гуртом - підтримка та поширення


З нами з: 16.11.16
Востаннє: 20.09.20
Повідомлень: 4023

2018-07-29 21:40  
Дикун / Gauguin - Voyage de Tahiti (2017) Remux 1080p Ukr/Fre | Sub Eng



Жанр: біографічний, драма, мелодрама
Країна: Франція



Кінокомпанія: Studio Canal, Canal+
Режисер: Едуард Делюк / Edouard Deluc
Актори: Венсан Кассель, Тухей Адамс, Малік Зіді, Пернілла Бергендорф, Марк Барбе, Пуа-Тай Гікутіні, Поль Жансон, Седрик Екхаут, Самуель Жуй, Скалі Делпейрат

Сюжет:
Поль Гоген (Венсан Кассель) до семи років жив у Перу, на батьківщині своєї матері. І на все подальше життя зберіг відношення до благ цивілізації як до чогось зайвого, набутого помилково. Поль одружився, став батьком п’ятьох дітей, майстерним художником. Та прагнення бути ближчим до незайманої природи його не полишало. Можливо тому серед його робіт так багато пейзажів? Коли його родина стикнулася з фінансовими проблемами, Поль поїхав на заробітки на будівництво Панамського каналу, а потім на острів Таїті, де він і прожив до кінця своїх днів.
Офіційні українські тизер та трейлер:




Вікова категорія: 16+

Тривалість: 01:40:52
Якість: Remux 1080p
Відео:
кодек:
розмір кадру: 1920x1080
бітрейт: 29,8 Mб/с

Аудіо # 1:
мова: українська
переклад: професійний дубльований
кодек: 2.0 (стерео)
бітрейт: 192 кб/с

Аудіо # 2:
мова: французька
переклад: оригінал
кодек: -HD MA 5.1
бітрейт: 3840 кб/с
Info
General
Unique ID : 20924052131934346843571791988073127253 (0xFBDD36B4A80F00AD53C8BE0D70F5D55)
Complete name : G:\Драма\Gauguin - Voyage de Tahiti (2017) Remux 1080p [Ukr][Fre][Hurtom].
Format :
Format version : Version 4 / Version 2
File size : 23.8 GiB
Duration : 1 h 40 min
Overall bit rate mode : Variable
Overall bit rate : 33.8 Mb/s
Movie name : Gauguin - Voyage de Tahiti (2017) Remux 1080p [Ukr][Fre][Hurtom]
Encoded date : UTC 2018-07-29 20:57:53
Writing application : v24.0.0 ('Beyond The Pale') 64-bit
Writing library : libebml v1.3.6 + v1.4.9
Cover : Yes
Attachments : cover.jpg

Video
ID : 1
Format : AVC
Format/Info : Advanced Video Codec
Format profile : [email protected]
Format settings : CABAC / 4 Ref Frames
Format settings, CABAC : Yes
Format settings, ReFrames : 4 frames
Codec ID : V_MPEG4/ISO/AVC
Duration : 1 h 40 min
Bit rate mode : Variable
Bit rate : 29.8 Mb/s
Maximum bit rate : 37.0 Mb/s
Width : 1 920 pixels
Height : 1 080 pixels
Display aspect ratio : 16:9
Frame rate mode : Constant
Frame rate : 24.000 FPS
Color space : YUV
Chroma subsampling : 4:2:0
Bit depth : 8 bits
Scan type : Progressive
Bits/(Pixel*Frame) : 0.598
Stream size : 21.0 GiB (88%)
Language : French
Default : Yes
Forced : No

Audio #1
ID : 2
Format : AC-3
Format/Info : Audio Coding 3
Codec ID : A_AC3
Duration : 1 h 40 min
Bit rate mode : Constant
Bit rate : 192 kb/s
Channel(s) : 2 channels
Channel positions : Front: L R
Sampling rate : 48.0 kHz
Frame rate : 31.250 FPS (1536 SPF)
Bit depth : 16 bits
Compression mode : Lossy
Stream size : 139 MiB (1%)
Title : Дубляж
Language : Ukrainian
Service kind : Complete Main
Default : Yes
Forced : Yes

Audio #2
ID : 3
Format :
Format/Info : Digital Theater Systems
Format profile : MA / Core
Codec ID : A_DTS
Duration : 1 h 40 min
Bit rate mode : Variable / Constant
Bit rate : 3 840 kb/s / 1 509 kb/s
Channel(s) : 6 channels
Channel positions : Front: L C R, Side: L R, LFE
Sampling rate : 48.0 kHz
Frame rate : 93.750 FPS (512 SPF)
Bit depth : 24 bits
Compression mode : Lossless / Lossy
Stream size : 2.71 GiB (11%)
Title : Original
Language : French
Default : No
Forced : No

Menu
00:00:00.000 : en:00:00:00.000
00:09:59.333 : en:00:09:59.333
00:15:21.083 : en:00:15:21.083
00:23:54.042 : en:00:23:54.042
00:31:09.208 : en:00:31:09.208
00:41:34.000 : en:00:41:34.000
00:50:21.333 : en:00:50:21.333
01:01:29.083 : en:01:01:29.083
01:08:59.333 : en:01:08:59.333
01:17:04.375 : en:01:17:04.375
01:26:18.250 : en:01:26:18.250
01:36:58.000 : en:01:36:58.000
Скріншоти




Джерело: & &
Подяка Hanway'ю за синхронізацію та igor911 за допомогу.


Золотий реліз (завантажене не впливає на рейтинг)
 Трекер:    Зареєстрований   

Завантажити / скачати фільм українською



відео для новачків



 Зареєстрований:   2018-07-30 00:20
 Розмір:   23.81 GB 
 Оцінка фільму:   8.5/10 (Голосів: 10)
   
Інші релізи
   Дикун / Gauguin - Voyage de Tahiti (2017) 1080p Ukr/Fre staf777  1 / 0   9.64 GB   2018-07-29 22:24 
   Дикун / Gauguin - Voyage de Tahiti (2017) igor911  2 / 0   1.32 GB   2018-07-29 22:01 
   Дикун / Gauguin - Voyage de Tahiti (2017) 720p Ukr/Fre | Sub Eng igor911  0 / 0   4.26 GB   2018-07-29 21:42 
   Дикун / Gauguin - Voyage de Tahiti (2017) AVC Ukr/Fre uafilm.tv  3 / 0   1.86 GB   2018-07-29 20:09 
bot 
робот


З нами з: 30.09.07
Востаннє: 26.05.05
Повідомлень: 25548

2018-07-30 00:20  
Тему перенесено з Анонси релізів до форуму Фільми в HD


staf777

Oleksa9 
VIP


З нами з: 17.05.12
Востаннє: 20.09.20
Повідомлень: 412

2018-08-18 11:00  
Щьо, витрачю, хочю, щясти...
госпіталізувати -> шпиталізувати

Ваш часовий пояс: GMT + 2 Години

Нова тема   Відповісти