Леді Макбет / Lady Macbeth (2016) 1080p Ukr/Eng | Sub Eng

Нові коментарі

Нова тема   Відповісти
Автор Повідомлення
staf777 
Попереджень: 1
Попереджень: 1 


З нами з: 16.11.16
Востаннє: 19.12.18
Повідомлень: 1940

2018-07-29 20:24  
Леді Макбет / Lady Macbeth (2016) 1080p Ukr/Eng | Sub Eng



Жанр: драма, мелодрама
Країна: Велика Британія



Кінокомпанія: BBC Films
Режисер: Вільям Олдройд / William Oldroyd
Актори: Флоренс П'ю, Космо Джарвіс, Наомі Акі, Крістофер Фейрбенк, Пол Хілтон, Флер Хаудейк, Голда Рошевель, Антон Палмер, Ребекка Менлі, Кліфф Бернет та інші

Сюжет:
Вікторіанська Англія XIX століття. Невелике село, живе у відповідності з особливими звичаями, притаманними тій порі. Молода дівчина на ім'я Кетрін проживає нудне і нічим не примітне життя. Все змінюється, коли вона дізнається, що повинна стати дружиною чоловіка, який удвічі старший за неї. Нова сім'я відноситься до Кетрін зі зневагою і дає дівчині зрозуміти, що чекати турботи і любові в цьому будинку їй не варто. Через деякий час Кетрін знаходить спільну мову з робочим ферми свого чоловіка, і між ними спалахує пристрасть.
Офіційний український трейлер:


Рейтинг MPAA: R - особам до 17 років обов'язкова присутність батьків або дорослого опікуна
Вікова категорія: 16+

Тривалість: 01:28:54
Якість: 1080p
Відео:
кодек:
розмір кадру: 1920x804
бітрейт: 12 Мб/с

Аудіо # 1:
мова: українська
переклад: багатоголосий закадровий
кодек: 2.0 (стерео)
бітрейт: 192 кб/с

Аудіо # 2:
мова: англійська
переклад: оригінал
кодек: 5.1
бітрейт: 1509 кб/с

Субтитри # 1-2:
мова: англійська (повні, SDH)
тип: програмні (м'які)
формат: *.srt
Info
Код:
General
Unique ID                   : 124387828287831748563612844409050781838 (0x5D94396D25557D48AD24F7288B7A588E)
Complete name               : G:\Драма\Lady Macbeth (2016) 1080p [UKR_ENG] [Hurtom].
Format                      :
Format version              : Version 4 / Version 2
File size                   : 8.53 GiB
Duration                    : 1 h 28 min
Overall bit rate            : 13.7 Mb/s
Movie name                  : Lady Macbeth (2016) 1080p [UKR_ENG] [Hurtom]
Encoded date                : UTC 2018-07-29 18:21:08
Writing application         : v24.0.0 ('Beyond The Pale') 64-bit
Writing library             : libebml v1.3.6 + v1.4.9
Cover                       : Yes
Attachments                 : cover.jpg

Video
ID                          : 1
Format                      : AVC
Format/Info                 : Advanced Video Codec
Format profile              : [email protected]
Format settings             : CABAC / 5 Ref Frames
Format settings, CABAC      : Yes
Format settings, ReFrames   : 5 frames
Codec ID                    : V_MPEG4/ISO/AVC
Duration                    : 1 h 28 min
Bit rate                    : 12.0 Mb/s
Width                       : 1 920 pixels
Height                      : 804 pixels
Display aspect ratio        : 2.40:1
Frame rate mode             : Constant
Frame rate                  : 24.000 FPS
Color space                 : YUV
Chroma subsampling          : 4:2:0
Bit depth                   : 8 bits
Scan type                   : Progressive
Bits/(Pixel*Frame)          : 0.325
Stream size                 : 7.47 GiB (88%)
Title                       : Lady.Macbeth.2016.1080p.BluRay..Rus.Eng
Writing library             : core 152 r2851 ba24899
Encoding settings           : cabac=1 / ref=5 / deblock=1:-3:-3 / analyse=0x3:0x113 / me=umh / subme=10 / psy=1 / psy_rd=1.02:0.00 / mixed_ref=1 / me_range=32 / chroma_me=1 / trellis=2 / 8x8dct=1 / cqm=1 / deadzone=21,11 / fast_pskip=0 / chroma_qp_offset=-1 / threads=12 / lookahead_threads=2 / sliced_threads=0 / nr=0 / decimate=1 / interlaced=0 / bluray_compat=0 / constrained_intra=0 / bframes=8 / b_pyramid=2 / b_adapt=2 / b_bias=0 / direct=3 / weightb=1 / open_gop=0 / weightp=2 / keyint=230 / keyint_min=24 / scenecut=40 / intra_refresh=0 / rc_lookahead=40 / rc=crf / mbtree=0 / crf=16.4 / qcomp=0.61 / qpmin=10 / qpmax=69 / qpstep=4 / vbv_maxrate=62500 / vbv_bufsize=78125 / crf_max=0.0 / nal_hrd=none / filler=0 / ip_ratio=1.30 / pb_ratio=1.20 / aq=1:0.75
Language                    : English
Default                     : Yes
Forced                      : No

Audio #1
ID                          : 2
Format                      : AC-3
Format/Info                 : Audio Coding 3
Codec ID                    : A_AC3
Duration                    : 1 h 28 min
Bit rate mode               : Constant
Bit rate                    : 192 kb/s
Channel(s)                  : 2 channels
Channel positions           : Front: L R
Sampling rate               : 48.0 kHz
Frame rate                  : 31.250 FPS (1536 SPF)
Bit depth                   : 16 bits
Compression mode            : Lossy
Stream size                 : 122 MiB (1%)
Title                       : [UA-MVO]
Language                    : Ukrainian
Service kind                : Complete Main
Default                     : Yes
Forced                      : Yes

Audio #2
ID                          : 3
Format                      :
Format/Info                 : Digital Theater Systems
Codec ID                    : A_DTS
Duration                    : 1 h 28 min
Bit rate mode               : Constant
Bit rate                    : 1 509 kb/s
Channel(s)                  : 6 channels
Channel positions           : Front: L C R, Side: L R, LFE
Sampling rate               : 48.0 kHz
Frame rate                  : 93.750 FPS (512 SPF)
Bit depth                   : 24 bits
Compression mode            : Lossy
Stream size                 : 960 MiB (11%)
Language                    : English
Default                     : No
Forced                      : No

Text #1
ID                          : 4
Format                      : UTF-8
Codec ID                    : S_TEXT/UTF8
Codec ID/Info               : UTF-8 Plain Text
Duration                    : 1 h 20 min
Bit rate                    : 25 b/s
Count of elements           : 482
Stream size                 : 14.8 KiB (0%)
Language                    : English
Default                     : No
Forced                      : No

Text #2
ID                          : 5
Format                      : UTF-8
Codec ID                    : S_TEXT/UTF8
Codec ID/Info               : UTF-8 Plain Text
Duration                    : 1 h 20 min
Bit rate                    : 27 b/s
Count of elements           : 566
Stream size                 : 16.1 KiB (0%)
Title                       : SDH
Language                    : English
Default                     : No
Forced                      : No

Menu
00:00:00.000                : en:Chapter 01
00:07:14.416                : en:Chapter 02
00:14:33.833                : en:Chapter 03
00:21:09.500                : en:Chapter 04
00:27:14.541                : en:Chapter 05
00:36:44.250                : en:Chapter 06
00:45:23.833                : en:Chapter 07
00:55:36.958                : en:Chapter 08
01:02:31.625                : en:Chapter 09
01:11:11.375                : en:Chapter 10
01:18:23.000                : en:Chapter 11
01:24:46.416                : en:Chapter 12



Джерело: & &
Подяка Hanway'ю за синхронізацію та igor911 за допомогу.


 Трекер:    Зареєстрований   

Завантажити / скачати фільм українською



відео для новачків



 Зареєстрований:   2018-07-29 20:36
 Розмір:   8.53 GB 
 Оцінка фільму:   7.4/10 (Голосів: 5)
   
Інші релізи
   Леді Макбет / Lady Macbeth (2016) igor911  8 / 0   1.31 GB   2018-07-29 19:50 
   Леді Макбет / Lady Macbeth (2016) 720p Ukr/Eng | Sub Eng igor911  5 / 0   4.28 GB   2018-07-29 19:23 
   Леді Макбет / Lady Macbeth (2016) AVC Ukr/Eng | Sub Eng uafilm.tv  10 / 0   1.27 GB   2018-07-29 18:31 
hetzendorf 
Попереджень: 1
Попереджень: 1 


З нами з: 23.07.15
Востаннє: 19.12.18
Повідомлень: 1595

2018-10-04 23:36  
Яка мерзенна й гидка історія, усі персонажі огидні й жоден не викликає жалю, що втім не дивно, адже оригінальний твір про кацапів і кацапом написаний — «Леді Макбет Мценскава уєзда», автор Нікалай Лєсков.
2/10

lightinsight 
Свій


З нами з: 07.04.14
Востаннє: 15.12.18
Повідомлень: 100

2018-10-05 01:05  
hetzendorf
афтар

ProgBassing 
Відео Гуртом - фільмокрай
Відео Гуртом - фільмокрай


З нами з: 08.03.08
Востаннє: 19.12.18
Повідомлень: 807

2018-10-05 08:35  
hetzendorf написано:
твір про кацапів і кацапом написаний


дякую, чергове підпитальне до перегляду кіно вже таким не є :І

Ваш часовий пояс: GMT + 2 Години

Нова тема   Відповісти