Дикун / Gauguin - Voyage de Tahiti (2017) 720p Ukr/Fre | Sub Eng

Нові коментарі

Нова тема   Відповісти
Автор Повідомлення
Anonymous 







2018-07-29 21:13  
Дикун / Gauguin - Voyage de Tahiti (2017) 720p Ukr/Fre | Sub Eng



Жанр: біографічний, драма, мелодрама
Країна: Франція



Кінокомпанія: Studio Canal, Canal+, Move Movie, NJJ Entertainment, 120 Films, Ciné+
Режисер: Едуард Делюк / Edouard Deluc
Актори: Венсан Касель / Vincent Cassel, Тухей Адамс / Tuheï Adams, Малік Зіді / Malik Zidi, Пернілла Бергендорф / Pernille Bergendorff, Марк Барбе / Marc Barbé, Пуа-Тай Гікутіні / Pua-Taï Hikutini, Поль Жансон / Paul Jeanson, Седрик Екхаут / Cédric Eeckhout, Самуель Жуй / Samuel Jouy, Скалі Делпейрат / Scali Delpeyrat та інші

Сюжет:
Поль Гоген (Венсан Кассель) до семи років жив у Перу, на батьківщині своєї матері. І на все подальше життя зберіг відношення до благ цивілізації як до чогось зайвого, набутого помилково. Поль одружився, став батьком п’ятьох дітей, майстерним художником. Та прагнення бути ближчим до незайманої природи його не полишало. Можливо тому серед його робіт так багато пейзажів? Коли його родина стикнулася з фінансовими проблемами, Поль поїхав на заробітки на будівництво Панамського каналу, а потім на острів Таїті, де він і прожив до кінця своїх днів.
Офіційні українські тизер та трейлер:




Вікова категорія: 16+

Тривалість: 01:40:52
Якість: 720p
Відео:
кодек:
розмір кадру: 1280 х 536
бітрейт: 5230 кб/с

Аудіо # 1:
мова: українська
переклад: професійний дубльований
кодек: 2.0 (стерео)
бітрейт: 192 кб/с

Аудіо # 2:
мова: французька
переклад: оригінал
кодек: 5.1
бітрейт: 640 кб/с

Субтитри:
мова: англійська
тип: програмні (м'які)
формат: *.srt

Збережено оригінальні розділи, як на Blu-ray
Info
Код:
Complete name               : Gauguin - Voyage de Tahiti (2017) [Ukr,Fre sub.Eng] 720p [Hurtom].
Format                      :
Format version              : Version 4 / Version 2
File size                   : 4.26 GiB
Duration                    : 1 h 40 min
Overall bit rate            : 6 053 kb/s
Movie name                  : Дикун / Gauguin - Voyage de Tahiti (2017) [Ukr,Fre sub.Eng] 720p [Hurtom]
Released date               : 2017
Encoded date                : UTC 2018-07-29 18:26:58
Writing application         : v25.0.0 ('Prog Noir') 64-bit
Writing library             : libebml v1.3.6 + v1.4.9
Cover                       : Yes
Comment                     : https://www.imdb.com/title/tt6330052/
Attachments                 : cover.jpg
DIRECTOR                    : Едуард Делюк / Edouard Deluc
GENRE                       : біографічний, драма, мелодрама
SYNOPSIS                    : Поль Гоген (Венсан Кассель) до семи років жив у Перу, на батьківщині своєї матері. І на все подальше життя зберіг відношення до благ цивілізації як до чогось зайвого, набутого помилково. Поль одружився, став батьком п’ятьох дітей, майстерним художником. Та прагнення бути ближчим до незайманої природи його не полишало. Можливо тому серед його робіт так багато пейзажів? Коли його родина стикнулася з фінансовими проблемами, Поль поїхав на заробітки на будівництво Панамського каналу, а потім на острів Таїті, де він і прожив до кінця своїх днів....
Url                         : https://toloka.to/t93816

Video
ID                          : 1
Format                      : AVC
Format/Info                 : Advanced Video Codec
Format profile              : [email protected]
Format settings             : CABAC / 12 Ref Frames
Format settings, CABAC      : Yes
Format settings, ReFrames   : 12 frames
Codec ID                    : V_MPEG4/ISO/AVC
Duration                    : 1 h 40 min
Bit rate                    : 5 230 kb/s
Width                       : 1 280 pixels
Height                      : 536 pixels
Display aspect ratio        : 2.40:1
Frame rate mode             : Constant
Frame rate                  : 24.000 FPS
Color space                 : YUV
Chroma subsampling          : 4:2:0
Bit depth                   : 8 bits
Scan type                   : Progressive
Bits/(Pixel*Frame)          : 0.318
Stream size                 : 3.68 GiB (86%)
Title                       : Дикун / Gauguin - Voyage de Tahiti (2017) 720p [ExKinoRay]
Writing library             : core 148 r2705 3f5ed56
Encoding settings           : cabac=1 / ref=12 / deblock=1:-2:-2 / analyse=0x3:0x133 / me=umh / subme=11 / psy=1 / psy_rd=1.05:0.05 / mixed_ref=1 / me_range=48 / chroma_me=1 / trellis=2 / 8x8dct=1 / cqm=0 / deadzone=21,11 / fast_pskip=0 / chroma_qp_offset=-3 / threads=12 / lookahead_threads=4 / sliced_threads=0 / nr=0 / decimate=0 / interlaced=0 / bluray_compat=0 / constrained_intra=0 / bframes=8 / b_pyramid=2 / b_adapt=2 / b_bias=0 / direct=3 / weightb=1 / open_gop=0 / weightp=2 / keyint=240 / keyint_min=24 / scenecut=40 / intra_refresh=0 / rc_lookahead=50 / rc=2pass / mbtree=0 / bitrate=5230 / ratetol=1.0 / qcomp=0.60 / qpmin=0 / qpmax=69 / qpstep=4 / cplxblur=20.0 / qblur=0.5 / vbv_maxrate=50000 / vbv_bufsize=62500 / nal_hrd=none / filler=0 / ip_ratio=1.40 / pb_ratio=1.30 / aq=3:0.80
Language                    : French
Default                     : Yes
Forced                      : No

Audio #1
ID                          : 2
Format                      : AC-3
Format/Info                 : Audio Coding 3
Codec ID                    : A_AC3
Duration                    : 1 h 40 min
Bit rate mode               : Constant
Bit rate                    : 192 kb/s
Channel(s)                  : 2 channels
Channel positions           : Front: L R
Sampling rate               : 48.0 kHz
Frame rate                  : 31.250 FPS (1536 SPF)
Bit depth                   : 16 bits
Compression mode            : Lossy
Stream size                 : 139 MiB (3%)
Title                       : Dub, 2.0 [stereo] 192 Kbps
Language                    : Ukrainian
Service kind                : Complete Main
Default                     : Yes
Forced                      : Yes

Audio #2
ID                          : 3
Format                      : AC-3
Format/Info                 : Audio Coding 3
Codec ID                    : A_AC3
Duration                    : 1 h 40 min
Bit rate mode               : Constant
Bit rate                    : 640 kb/s
Channel(s)                  : 6 channels
Channel positions           : Front: L C R, Side: L R, LFE
Sampling rate               : 48.0 kHz
Frame rate                  : 31.250 FPS (1536 SPF)
Bit depth                   : 16 bits
Compression mode            : Lossy
Stream size                 : 462 MiB (11%)
Title                       : Original, 5.1 640 Kbps
Language                    : French
Service kind                : Complete Main
Default                     : No
Forced                      : No

Text
ID                          : 4
Format                      : UTF-8
Codec ID                    : S_TEXT/UTF8
Codec ID/Info               : UTF-8 Plain Text
Duration                    : 1 h 34 min
Bit rate                    : 17 b/s
Count of elements           : 450
Stream size                 : 11.9 KiB (0%)
Title                       : Eng full
Language                    : English
Default                     : No
Forced                      : No

Menu
00:00:00.000                : en:00:00:00.000
00:09:59.333                : en:00:09:59.333
00:15:21.083                : en:00:15:21.083
00:23:54.042                : en:00:23:54.042
00:31:09.208                : en:00:31:09.208
00:41:34.000                : en:00:41:34.000
00:50:21.333                : en:00:50:21.333
01:01:29.083                : en:01:01:29.083
01:08:59.333                : en:01:08:59.333
01:17:04.375                : en:01:17:04.375
01:26:18.250                : en:01:26:18.250
01:36:58.000                : en:01:36:58.000




Джерело: & &
Подяка Hanway'ю за синхронізацію.


 Трекер:    Зареєстрований   

Завантажити / скачати фільм українською



відео для новачків



 Зареєстрований:   2018-07-29 21:42
 Розмір:   4.26 GB 
 Оцінка фільму:   10/10 (Голосів: 3)
   
Інші релізи
   Дикун / Gauguin - Voyage de Tahiti (2017) Remux 1080p Ukr/Fre staf777  2 / 0   23.81 GB   2018-07-30 00:20 
   Дикун / Gauguin - Voyage de Tahiti (2017) 1080p Ukr/Fre staf777  1 / 0   9.64 GB   2018-07-29 22:24 
   Дикун / Gauguin - Voyage de Tahiti (2017) igor911  2 / 0   1.32 GB   2018-07-29 22:01 
   Дикун / Gauguin - Voyage de Tahiti (2017) AVC Ukr/Fre uafilm.tv  3 / 0   1.86 GB   2018-07-29 20:09 
Ваш часовий пояс: GMT + 2 Години

Нова тема   Відповісти