На голці / Trainspotting (1996) 1080p Ukr/Eng | Sub Eng

Нові коментарі

Нова тема   Відповісти
Автор Повідомлення
Anonymous 







2018-07-29 20:35  
На голці / Trainspotting (1996) 1080p Ukr/Eng | Sub Eng

На голці / Trainspotting (1996) 1080p Ukr/Eng | Sub Eng


Жанр: драма, кримінал
Країна: Велика Британія



Кінокомпанія: Channel Four Films
Режисер: Денні Бойл (Danny Boyle)
Актори: Еван МакҐреґор (Ewan McGregor), Евен Бреммер (Ewen Bremner), Джонні Лі Міллер (Jonny Lee Miller), Кевін МакКідд (Kevin McKidd), Роберт Карлайл (Robert Carlyle), Келлі Макдональд (Kelly Macdonald), Пітер Маллен (Peter Mullan) та інші

Сюжет:
Вибирай життя. Вибирай роботу. Вибирай кар'єру. Обирай сім'ю. Обирай великі телевізори, пральні машини, автомобілі, компакт-диск плейери, електричні консервні ножі. Обирай хороше здоров'я, низький рівень холестерину і стоматологічну страховку.

Обирай нерухомість і акуратно виплачуй внески. Вибери свій перший будинок. Вибирай своїх друзів. Вибери собі курорт і шикарні валізи. Вибери костюм-трійку кращої фірми з матеріалу найдорожчого. Вибери набір «Зроби сам», щоб було чим зайнятися недільним ранком.

Вибери зручний диван, щоб розвалитися на ньому й дивитися тупе шоу. Набивай своє черево всякою всячиною. Вибери загнивання в кінці всього і пригадай з соромом наостанок своїх дружків-покидьків, яких ти заклав щоб видертися. Обирай майбутнє. Вибирай життя.

Але навіщо мені все це? Я не став вибирати життя ... Я вибрав дещо інше ... Чому? Та тому ... Які можуть бути чому, коли ти під кайфом? Коли є героїн ...


Тривалість: 01:33:51
Якість: 1080p
Відео:
кодек:
розмір кадру: 1916х1080
бітрейт: 16,4 Mb/s

Аудіо # 1:
мова: українська
переклад: двоголосий закадровий
кодек: 2.0
бітрейт: 192 кб/с

Аудіо # 2:
мова: англійська
переклад: оригінал
кодек: 5.1
бітрейт: 1510 кб/с

Субтитри:
мова: англійська
тип: програмні (м'які)
формат: *.srt
Info
General
Unique ID : 228539296303417837729723631372189716393 (0xABEF1142915B0F7384A34EC08D964FA9)
Format :
Format version : Version 4 / Version 2
File size : 12.1 GiB
Duration : 1 h 33 min
Overall bit rate : 18.4 Mb/s
Movie name : Trainspotting.1996.1080p.BluRay..-FGT
Encoded date : UTC 2018-07-30 04:21:22
Writing application : v6.1.0 ('Old Devil') built on Mar 4 2013 09:10:42
Writing library : libebml v1.3.0 + v1.4.0

Video
ID : 1
Format : AVC
Format/Info : Advanced Video Codec
Format profile : [email protected]
Format settings : CABAC / 4 Ref Frames
Format settings, CABAC : Yes
Format settings, ReFrames : 4 frames
Codec ID : V_MPEG4/ISO/AVC
Duration : 1 h 33 min
Bit rate : 16.4 Mb/s
Width : 1 916 pixels
Height : 1 080 pixels
Display aspect ratio : 16:9
Frame rate mode : Constant
Frame rate : 23.976 FPS
Color space : YUV
Chroma subsampling : 4:2:0
Bit depth : 8 bits
Scan type : Progressive
Bits/(Pixel*Frame) : 0.330
Stream size : 10.7 GiB (89%)
Writing library : core 65 r1057M 5f8a149
Encoding settings : cabac=1 / ref=4 / deblock=1:-3:-3 / analyse=0x3:0x133 / me=umh / subme=8 / psy_rd=1.2:0.0 / mixed_ref=1 / me_range=32 / chroma_me=1 / trellis=2 / 8x8dct=1 / cqm=0 / deadzone=21,11 / chroma_qp_offset=-2 / threads=6 / nr=0 / decimate=1 / mbaff=0 / bframes=16 / b_pyramid=1 / b_adapt=2 / b_bias=0 / direct=1 / wpredb=1 / keyint=250 / keyint_min=25 / scenecut=40(pre) / rc=crf / crf=20.0 / qcomp=0.60 / qpmin=10 / qpmax=51 / qpstep=4 / ip_ratio=1.40 / pb_ratio=1.30 / aq=1:0.80
Language : English
Default : Yes
Forced : No

Audio #1
ID : 2
Format : AC-3
Format/Info : Audio Coding 3
Codec ID : A_AC3
Duration : 1 h 33 min
Bit rate mode : Constant
Bit rate : 192 kb/s
Channel(s) : 2 channels
Channel positions : Front: L R
Sampling rate : 48.0 kHz
Frame rate : 31.250 FPS (1536 SPF)
Bit depth : 16 bits
Compression mode : Lossy
Stream size : 129 MiB (1%)
Title : UKR (Gamma)
Language : Ukrainian
Service kind : Complete Main
Default : Yes
Forced : Yes

Audio #2
ID : 3
Format :
Format/Info : Digital Theater Systems
Codec ID : A_DTS
Duration : 1 h 33 min
Bit rate mode : Constant
Bit rate : 1 510 kb/s
Channel(s) : 6 channels
Channel positions : Front: L C R, Side: L R, LFE
Sampling rate : 48.0 kHz
Frame rate : 93.750 FPS (512 SPF)
Bit depth : 24 bits
Compression mode : Lossy
Stream size : 1 013 MiB (8%)
Language : English
Default : No
Forced : No

Text
ID : 4
Format : UTF-8
Codec ID : S_TEXT/UTF8
Codec ID/Info : UTF-8 Plain Text
Title : ENG
Language : English
Default : Yes
Forced : No
Скріншоти





Подяка пану MAKAPOHHIK та robotron005 за українську доріжку
Подяка пану thefir за українізований постер.
Особиста подяка пану denixx за надану матеріальну допомогу на підтримку цього і майбутніх релізів.
Джерело:


Срібний реліз (на рейтинг впливає 50% завантаженого)
 Трекер:    Зареєстрований   

Завантажити / скачати фільм українською



відео для новачків



 Зареєстрований:   2018-07-30 07:30
 Розмір:   12.08 GB 
 Оцінка фільму:   10/10 (Голосів: 2)
   
Інші релізи
   На голці / Trainspotting (1996) AVC Ukr/Eng | Sub Eng staf777  3 / 0   2.84 GB   2018-05-31 19:18 
   На голці / Trainspotting (1996) Remux 1080p Ukr/Eng | Sub Eng staf777  3 / 0   24.8 GB   2018-02-26 19:07 
   На голці / Trainspotting (1996) 720p Ukr/Eng TNT.KOT  4 / 0   2.51 GB   2013-05-12 13:46 
   На голці / Trainspotting (1996) Ukr/Eng robotron005  4 / 0   1.58 GB   2013-02-03 15:18 
+380954897458 
VIP


З нами з: 02.06.17
Востаннє: 19.05.19
Повідомлень: 259

2018-07-30 00:03  
Ідеальне співвідношення розміру та якості, дякую!!! Happy Happy Happy
igor911 
Модератор відео


З нами з: 18.01.08
Востаннє: 20.05.19
Повідомлень: 12504

2018-07-30 01:19  
МедіаІнфо написано:
subme=6

Правила написано:

Параметри кодування мають відповідати хоча б me=umh, subme=7, ref=3

треба замінити відеоряд на якісніший.
Наприклад на ріп від SbR (є на рутрекері), де при бітрейті 20 Мб/с кванти ледь вписуються в норму (джерело відео погано піддається стисканню):
кванти
[info]: frame I:877 Avg QP:16.67 size:333936
[info]: frame P:28828 Avg QP:18.52 size:171562
[info]: frame B:105302 Avg QP:21.20 size: 83732
в шо вписуються кванти тут при вдвічі нижчому бітрейті не важко здогадатись
(під плінтус)

bot 
робот


З нами з: 30.09.07
Востаннє: 26.05.05
Повідомлень: 21350

2018-07-30 10:30  
Тему перенесено з Неоформлене відео до форуму Фільми в HD

Причина перенесення: заміна відеоряду
igor911

yuretsua 
Частий відвідувач


З нами з: 05.09.11
Востаннє: 14.05.19
Повідомлень: 45

2018-07-30 17:30  
Anonymous написано:
отупляющее шоу.

виправте, будь ласка

igor911 
Модератор відео


З нами з: 18.01.08
Востаннє: 20.05.19
Повідомлень: 12504

2018-07-30 17:33  
виправив
Ваш часовий пояс: GMT + 2 Години

Нова тема   Відповісти