Леді Макбет / Lady Macbeth (2016)

Нові коментарі

Нова тема   Відповісти
Автор Повідомлення
Anonymous 







2018-07-29 20:28  
Леді Макбет / Lady Macbeth (2016)



Жанр: драма, мелодрама
Країна: Велика Британія



Кінокомпанія: BBC Films
Режисер: Вільям Олдройд / William Oldroyd
Актори: Флоренс П'ю / Florence Pugh, Космо Джарвіс / Cosmo Jarvis, Наомі Акі / Naomi Ackie, Крістофер Фейрбенк / Christopher Fairbank, Пол Хілтон / Paul Hilton, Флер Хаудейк / Fleur Houdijk, Голда Рошевель / Golda Rosheuvel, Антон Палмер / Anton Palmer, Ребекка Менлі / Rebecca Manley, Кліфф Бернет / Cliff Burnett та інші

Сюжет:
Вікторіанська Англія XIX століття. Невелике село, живе у відповідності з особливими звичаями, притаманними тій порі. Молода дівчина на ім'я Кетрін проживає нудне і нічим не примітне життя. Все змінюється, коли вона дізнається, що повинна стати дружиною чоловіка, який удвічі старший за неї. Нова сім'я відноситься до Кетрін зі зневагою і дає дівчині зрозуміти, що чекати турботи і любові в цьому будинку їй не варто. Через деякий час Кетрін знаходить спільну мову з робочим ферми свого чоловіка, і між ними спалахує пристрасть.
Офіційний український трейлер:


Рейтинг MPAA: R - особам до 17 років обов'язкова присутність батьків або дорослого опікуна
Вікова категорія: 16+

Тривалість: 01:28:54
Якість:
Відео:
кодек:
розмір кадру: 720 х 304
бітрейт: 1905 кб/с

Аудіо:
мова: українська
переклад: багатоголосий закадровий
кодек: 2.0 (стерео)
бітрейт: 192 кб/с
Info
Код:
General
Complete name               : Lady Macbeth (2016) [Ukr] [Hurtom].avi
Format                      : AVI
Format/Info                 : Audio Video Interleave
File size                   : 1.31 GiB
Duration                    : 1 h 28 min
Overall bit rate            : 2 106 kb/s
Movie name                  : Леді Макбет / Lady Macbeth (2016) [Ukr] [Hurtom]
Genre                       : драма, мелодрама
Recorded date               : 29.07.2018
Writing application         : VirtualDubModUkr 1.5.10.2 (build 2542/release)
Writing library             : VirtualDubMod build 2542/release
Comment                     : https://toloka.to/t93813

Video
ID                          : 0
Format                      : MPEG-4 Visual
Format profile              : Advanced [email protected]
Format settings             : BVOP2 / Custom Matrix
Format settings, BVOP       : 2
Format settings, QPel       : No
Format settings, GMC        : No warppoints
Format settings, Matrix     : Custom
Codec ID                    :
Codec ID/Hint               :
Duration                    : 1 h 28 min
Bit rate                    : 1 905 kb/s
Width                       : 720 pixels
Height                      : 304 pixels
Display aspect ratio        : 2.35:1
Frame rate                  : 24.000 FPS
Color space                 : YUV
Chroma subsampling          : 4:2:0
Bit depth                   : 8 bits
Scan type                   : Progressive
Compression mode            : Lossy
Bits/(Pixel*Frame)          : 0.363
Stream size                 : 1.18 GiB (90%)
Writing library             : 73

Audio
ID                          : 1
Format                      : AC-3
Format/Info                 : Audio Coding 3
Codec ID                    : 2000
Duration                    : 1 h 28 min
Bit rate mode               : Constant
Bit rate                    : 192 kb/s
Channel(s)                  : 2 channels
Channel positions           : Front: L R
Sampling rate               : 48.0 kHz
Frame rate                  : 31.250 FPS (1536 SPF)
Bit depth                   : 16 bits
Compression mode            : Lossy
Stream size                 : 122 MiB (9%)
Alignment                   : Split accross interleaves
Interleave, duration        : 42  ms (1.00 video frame)
Interleave, preload duratio : 500  ms
Title                       : UKR MVO [stereo]
Service kind                : Complete Main





Джерело: & &
Подяка Hanway'ю за синхронізацію.


 Трекер:    Зареєстрований   

Завантажити / скачати фільм українською



відео для новачків



 Зареєстрований:   2018-07-29 20:50
 Розмір:   1.31 GB 
 Оцінка фільму:   7.4/10 (Голосів: 17)
   
Інші релізи
   Леді Макбет / Lady Macbeth (2016) 1080p Ukr/Eng | Sub Eng staf777  1 / 0   8.53 GB   2018-07-29 21:36 
   Леді Макбет / Lady Macbeth (2016) 720p Ukr/Eng | Sub Eng igor911  0 / 0   4.28 GB   2018-07-29 20:23 
   Леді Макбет / Lady Macbeth (2016) AVC Ukr/Eng | Sub Eng uafilm.tv  0 / 0   1.27 GB   2018-07-29 19:31 
medved666 
Свій


З нами з: 11.04.15
Востаннє: 22.08.18
Повідомлень: 88

2018-07-31 20:09  
хто дивився?
an-isa 
Частий відвідувач


З нами з: 18.02.13
Востаннє: 01.04.19
Повідомлень: 37

2018-08-11 00:03  
За твором російського письменника Лєскова. Нічого вікторіанського, навіть чаювання - не англійське. А загалом фільм - безрадісна, ница, відразлива гидота. Головна ідея: жінка - це зло. Для будь-якого чоловіка. 3/10 - за акторську гру, але краще б вони грали щось людське.
toma1408 
Поважний учасник


З нами з: 28.08.10
Востаннє: 21.04.19
Повідомлень: 185

2018-08-11 07:33  
Дуже депресивний, нічим не видатний і затягнутий фільм. 6/10
mer-de 
Новенький


З нами з: 30.03.16
Востаннє: 23.04.19
Повідомлень: 9

2018-08-11 07:36  
Придивившись уважно до злочинів скоїних чоловіками, не важко знайти жіночу постать, яка уникла покарання, розголосу...
hetzendorf 
Попереджень: 2
Попереджень: 2 


З нами з: 23.07.15
Востаннє: 24.04.19
Повідомлень: 2055

2018-10-05 00:37  
Згодний з попередніми коментарями. Детальніше у FullHD-темі >>>
Ваш часовий пояс: GMT + 2 Години

Нова тема   Відповісти