Розкрадачка гробниць: Лара Крофт / Tomb Raider (2018) 1080p Ukr/Eng | Sub Eng

Нові коментарі

Нова тема   Відповісти
Автор Повідомлення
staf777 
Попереджень: 1
Попереджень: 1 


З нами з: 16.11.16
Востаннє: 15.12.18
Повідомлень: 1918

2018-07-29 19:16  
Розкрадачка гробниць: Лара Крофт / Tomb Raider (2018) 1080p Ukr/Eng | Sub Eng

Розкрадачка гробниць: Лара Крофт / Tomb Raider (2018) 1080p Ukr/Eng | Sub Eng


Жанр: бойовик, пригоди
Країна: США, Велика Британія



Кінокомпанія: Metro-Goldwyn-Mayer, Warner Bros. Pictures, GK Films
Режисер: Роар Утхауг
Актори: Алісія Вікандер, Волтон Гоггінс, Деніел Ву, Домінік Вест, Ханна Джон-Кеймен, Крістін Скотт-Томас, Нік Фрост, Емілі Кер,і Майкл Обіора, Антоніо Аакіл та інші

Сюжет:
Лара Крофт – безстрашна дочка ексцентричного шукача пригод, який зник, коли Лара була підлітком. Зараз їй 21. Вона не має цілі в житті, грошей та заробляє на хліб кур’єром у Східному Лондоні. Налаштована самостійно торувати свій шлях, Лара навідріз відмовляється успадкувати батькові статки та прийняти його смерть. Але коли дівчина врешті наважується рухатись далі, то несподівано долучається до розслідування його таємничої смерті. Ця місія буде не з легких.


Тривалість: 01:57:50
Якість: 1080p
Відео:
кодек:
розмір кадру: 1920x802
бітрейт: 13 Mб/с

Аудіо # 1:
мова: українська
переклад: професійний дубльований | студія Postmodern
кодек: 2.0
бітрейт: 192 кб/с
Інформація про дубляж
Переклад: Олега Колеснікова
Режисер дубляжу: Павло Скороходько
Звукорежисер: Антон Семикопенко
Звукорежисер перезапису: Юрій Антонов
Ролі дублювали: Лара — Антоніна Якушева, Річард — Володимир Кокотунов, Фогель — Андрій Мостренко, Лю Рен — Іван Розін, Анна — Наталя Ярошенко, містер Яффі — Юрій Висоцький, Софі — Антоніна Матвієнко, Рокет — Арсен Мірзоян, Валерій Легінь та інші.
Аудіо # 2:
мова: англійська
переклад: оригінал
кодек: 5.1
бітрейт: 1509 кб/с

Субтитри # 1-2: [Full,SDH]
мова: англійська
тип: програмні (м'які)
формат: *.srt
Info
General
Unique ID : 285327280727545499665317418981635015211 (0xD6A8090F57FCC6391FAE0DE72AF6422B)
Complete name : G:\Бойовик\Tomb Raider (2018) 1080p [UKR_ENG] [Hurtom] .
Format :
Format version : Version 4 / Version 2
File size : 12.1 GiB
Duration : 1 h 57 min
Overall bit rate : 14.7 Mb/s
Movie name : Tomb Raider (2018) 1080p [UKR_ENG] [Hurtom]
Encoded date : UTC 2018-07-29 16:50:07
Writing application : v24.0.0 ('Beyond The Pale') 64-bit
Writing library : libebml v1.3.6 + v1.4.9
Cover : Yes
Attachments : cover.jpg

Video
ID : 1
Format : AVC
Format/Info : Advanced Video Codec
Format profile : [email protected]
Format settings : CABAC / 4 Ref Frames
Format settings, CABAC : Yes
Format settings, ReFrames : 4 frames
Codec ID : V_MPEG4/ISO/AVC
Duration : 1 h 57 min
Bit rate : 13.0 Mb/s
Width : 1 920 pixels
Height : 802 pixels
Display aspect ratio : 2.40:1
Frame rate mode : Constant
Frame rate : 23.976 (24000/1001) FPS
Color space : YUV
Chroma subsampling : 4:2:0
Bit depth : 8 bits
Scan type : Progressive
Bits/(Pixel*Frame) : 0.352
Stream size : 10.7 GiB (88%)
Title : Tomb Raider: Лара Крофт / Tomb Raider (2018)
Writing library : core 155 r2867+74 66b5600 t_mod_Custom_2 [[email protected] X86_64]
Encoding settings : cabac=1 / ref=4 / deblock=1:-3:-3 / analyse=0x3:0x133 / me=umh / subme=11 / psy=1 / fade_compensate=0.00 / psy_rd=0.95:0.10 / mixed_ref=1 / me_range=48 / chroma_me=1 / trellis=2 / 8x8dct=1 / cqm=0 / deadzone=21,11 / fast_pskip=0 / chroma_qp_offset=-4 / threads=12 / lookahead_threads=2 / sliced_threads=0 / nr=0 / decimate=1 / interlaced=0 / bluray_compat=0 / constrained_intra=0 / fgo=0 / bframes=9 / b_pyramid=2 / b_adapt=2 / b_bias=0 / direct=3 / weightb=1 / open_gop=0 / weightp=2 / keyint=250 / keyint_min=23 / scenecut=40 / intra_refresh=0 / rc_lookahead=30 / rc=2pass / mbtree=0 / bitrate=13000 / ratetol=1.0 / qcomp=0.70 / qpmin=0:0:0 / qpmax=69:69:69 / qpstep=4 / cplxblur=20.0 / qblur=0.5 / vbv_maxrate=35000 / vbv_bufsize=35000 / nal_hrd=none / filler=0 / ip_ratio=1.40 / pb_ratio=1.30 / aq=3:1.00 / aq-sensitivity=10.00 / aq-factor=1.00:1.00:1.00 / aq2=0 / aq3=2:[0.50:0.50]:[0.50:0.50]:[0.50:0.50]:[0.50:0.50] / aq3-sensitivity=10.00 / aq3-factor=[1.00:1.00]:[1.00:1.00]:[1.00:1.00] / aq3-boundary=192:64:24
Language : English
Default : Yes
Forced : No

Audio #1
ID : 2
Format : AC-3
Format/Info : Audio Coding 3
Codec ID : A_AC3
Duration : 1 h 57 min
Bit rate mode : Constant
Bit rate : 192 kb/s
Channel(s) : 2 channels
Channel positions : Front: L R
Sampling rate : 48.0 kHz
Frame rate : 31.250 FPS (1536 SPF)
Bit depth : 16 bits
Compression mode : Lossy
Stream size : 162 MiB (1%)
Title : [UA-DUB]
Language : Ukrainian
Service kind : Complete Main
Default : Yes
Forced : Yes

Audio #2
ID : 3
Format :
Format/Info : Digital Theater Systems
Codec ID : A_DTS
Duration : 1 h 57 min
Bit rate mode : Constant
Bit rate : 1 509 kb/s
Channel(s) : 6 channels
Channel positions : Front: L C R, Side: L R, LFE
Sampling rate : 48.0 kHz
Frame rate : 93.750 FPS (512 SPF)
Bit depth : 24 bits
Compression mode : Lossy
Stream size : 1.24 GiB (10%)
Language : English
Default : No
Forced : No

Text #1
ID : 4
Format : UTF-8
Codec ID : S_TEXT/UTF8
Codec ID/Info : UTF-8 Plain Text
Duration : 1 h 50 min
Bit rate : 29 b/s
Count of elements : 859
Stream size : 24.1 KiB (0%)
Title : Full
Language : English
Default : No
Forced : No

Text #2
ID : 5
Format : UTF-8
Codec ID : S_TEXT/UTF8
Codec ID/Info : UTF-8 Plain Text
Duration : 1 h 50 min
Bit rate : 35 b/s
Count of elements : 1121
Stream size : 28.5 KiB (0%)
Title : SDH
Language : English
Default : No
Forced : No

Menu
00:00:00.000 : en:00:00:00.000
00:13:13.251 : en:00:13:13.251
00:24:04.234 : en:00:24:04.234
00:31:57.999 : en:00:31:57.999
00:39:57.061 : en:00:39:57.061
00:50:31.070 : en:00:50:31.070
01:04:49.844 : en:01:04:49.844
01:13:58.100 : en:01:13:58.100
01:20:17.396 : en:01:20:17.396
01:27:41.131 : en:01:27:41.131
01:38:41.624 : en:01:38:41.624
01:51:17.421 : en:01:51:17.421
Скріншоти




Джерело: &
Особиста оцінка: 0 - не дивився


 Трекер:    Зареєстрований   

Завантажити / скачати фільм українською



відео для новачків



 Зареєстрований:   2018-07-29 19:17
 Розмір:   12.1 GB 
 Оцінка фільму:   8.2/10 (Голосів: 23)
   
igor911 
Відео Гуртом
Відео Гуртом


З нами з: 18.01.08
Востаннє: 15.12.18
Повідомлень: 11615

2018-07-29 22:09  
"золото" на тиждень для заохочення підтримки
Roman7Fedorak 
Свій


З нами з: 30.03.12
Востаннє: 15.12.18
Повідомлень: 94

2018-08-01 22:38  
спасибі
13Mark 
Поважний учасник


З нами з: 25.04.08
Востаннє: 14.12.18
Повідомлень: 192

2018-08-03 20:48  
Погано, дуже погано.
settlemaker 
Новенький


З нами з: 10.12.11
Востаннє: 13.12.18
Повідомлень: 13

2018-08-04 01:46  
Таке собі кінце. Але місцями адреналінчик наганяло.
Ваш часовий пояс: GMT + 2 Години

Нова тема   Відповісти