Ворог / Enemy (2013) 1080p H.265 Ukr/Eng | sub Eng

Нові коментарі

Нова тема   Відповісти
Автор Повідомлення
ukr_anonymous 
Попереджень: 1
Попереджень: 1 


З нами з: 16.04.18
Востаннє: 17.11.19
Повідомлень: 234

2018-07-29 18:14  
Ворог / Enemy (2013) 1080p H.265 Ukr/Eng | sub Eng

Ворог / Enemy (2013) 1080p H.265 Ukr/Eng | sub Eng


Жанр: містика, трилер
Країна: США



Кінокомпанія: Rhombus Media, Roxbury Pictures, Mecanismo Films
Режисер: Дені Вільнев / Denis Villeneuve
Актори: Джейк Джилленгол, Мелані Лоран, Сара Гадон, Ізабелла Росселліні

Сюжет:
Молодий викладач університету бере у відеопрокаті касету з фільмом, там він бачить хлопця, що схожий на нього як дві краплі води. У нього з'являється нав'язливе бажання знайти загадкового актора і побачити чи можлива така подібність насправді, чи все це плід його власної уяви.


Українською мовою озвучено студією Омікрон на замовлення HURTOM.COM


Тривалість: 01:30:59
Якість:
Відео:
кодек: H.265 (HEVC)
розмір кадру: 1920 х 800
бітрейт: 7 303 кб/с
бітова глибина: 10 біт
Увага! Перед завантаженням переконайтесь, що ваш пристрій відтворення (та/або ПЗ) підтримує H.265 (HEVC)

Аудіо # 1:
мова: українська
переклад: багатоголосий закадровий | Омікрон
кодек: 5.1
бітрейт: 1 509 кб/с

Аудіо # 2:
мова: англійська
переклад: оригінал
кодек: 5.1
бітрейт: 448 кб/с

Субтитри # 1-2:
мова: англійська (SDH, Full)
тип: програмні (м'які)
формат: *.srt
Info
General
Unique ID : 210249304580767878468830601972998749471 (0x9E2C8B0BBD1FA9443BF5F52088E43D1F)
Complete name : E:\Video\Enemy (2013) 1080p H.265 [UKR_ENG].
Format :
Format version : Version 4 / Version 2
File size : 5.89 GiB
Duration : 1 h 31 min
Overall bit rate : 9 247 kb/s
Movie name : Ennemy (2013)
Encoded date : UTC 2018-07-29 13:22:04
Writing application : v22.0.0 ('At The End Of The World') 64-bit
Writing library : libebml v1.3.5 + v1.4.8
Cover : Yes
Attachments : Cover.jpg

Video
ID : 1
Format : HEVC
Format/Info : High Efficiency Video Coding
Format profile : Main [email protected]@Main
Codec ID : V_MPEGH/ISO/HEVC
Duration : 1 h 30 min
Bit rate : 7 303 kb/s
Width : 1 920 pixels
Height : 800 pixels
Display aspect ratio : 2.40:1
Frame rate mode : Constant
Frame rate : 24.000 FPS
Color space : YUV
Chroma subsampling : 4:2:0
Bit depth : 10 bits
Bits/(Pixel*Frame) : 0.198
Stream size : 4.64 GiB (79%)
Writing library : x265 2.8+52-c258d214c978:[Windows][GCC 8.1.1][64 bit] 10bit
Encoding settings : cpuid=1111039 / frame-threads=16 / numa-pools=8,8 / wpp / no-pmode / no-pme / no-psnr / no-ssim / log-level=2 / input-csp=1 / input-res=1920x800 / interlace=0 / total-frames=131007 / level-idc=41 / high-tier=0 / uhd-bd=0 / ref=4 / no-allow-non-conformance / no-repeat-headers / annexb / no-aud / no-hrd / info / hash=0 / no-temporal-layers / no-open-gop / min-keyint=1 / keyint=250 / gop-lookahead=0 / bframes=8 / b-adapt=2 / b-pyramid / bframe-bias=0 / rc-lookahead=80 / lookahead-slices=4 / scenecut=40 / radl=0 / no-intra-refresh / ctu=32 / min-cu-size=8 / no-rect / no-amp / max-tu-size=32 / tu-inter-depth=2 / tu-intra-depth=2 / limit-tu=2 / rdoq-level=1 / dynamic-rd=0.00 / no-ssim-rd / signhide / no-tskip / nr-intra=0 / nr-inter=0 / no-constrained-intra / no-strong-intra-smoothing / max-merge=5 / limit-refs=3 / limit-modes / me=3 / subme=7 / merange=57 / temporal-mvp / weightp / no-weightb / no-analyze-src-pics / deblock=-2:-2 / no-sao / no-sao-non-deblock / rd=4 / no-early-skip / rskip / no-fast-intra / no-tskip-fast / no-cu-lossless / b-intra / no-splitrd-skip / rdpenalty=0 / psy-rd=1.50 / psy-rdoq=5.00 / no-rd-refine / no-lossless / cbqpoffs=0 / crqpoffs=0 / rc=abr / bitrate=7366 / qcomp=0.60 / qpstep=4 / stats-write=0 / stats-read=0 / ipratio=1.40 / pbratio=1.20 / aq-mode=1 / aq-strength=1.00 / cutree / zone-count=0 / no-strict-cbr / qg-size=32 / no-rc-grain / qpmax=69 / qpmin=0 / no-const-vbv / sar=1 / overscan=0 / videoformat=5 / range=0 / colorprim=1 / transfer=1 / colormatrix=1 / chromaloc=0 / display-window=0 / max-cll=0,0 / min-luma=0 / max-luma=1023 / log2-max-poc-lsb=8 / vui-timing-info / vui-hrd-info / slices=1 / no-opt-qp-pps / no-opt-ref-list-length-pps / no-multi-pass-opt-rps / scenecut-bias=0.05 / no-opt-cu-delta-qp / no-aq-motion / no-hdr / no-hdr-opt / no-dhdr10-opt / no-idr-recovery-sei / analysis-reuse-level=5 / scale-factor=0 / refine-intra=0 / refine-inter=0 / refine-mv=0 / no-limit-sao / ctu-info=0 / no-lowpass-dct / refine-mv-type=0 / copy-pic=1 / max-ausize-factor=1.0 / no-dynamic-refine / no-single-sei
Default : Yes
Forced : No
Color range : Limited
Color primaries : BT.709
Transfer characteristics : BT.709
Matrix coefficients : BT.709

Audio #1
ID : 2
Format :
Format/Info : Digital Theater Systems
Codec ID : A_DTS
Duration : 1 h 30 min
Bit rate mode : Constant
Bit rate : 1 509 kb/s
Channel(s) : 6 channels
Channel positions : Front: L C R, Side: L R, LFE
Sampling rate : 48.0 kHz
Frame rate : 93.750 FPS (512 SPF)
Bit depth : 24 bits
Compression mode : Lossy
Delay relative to video : 14 s 500 ms
Stream size : 981 MiB (16%)
Title : MVO Omikron studio for Hurtom
Language : Ukrainian
Default : Yes
Forced : No

Audio #2
ID : 3
Format : AC-3
Format/Info : Audio Coding 3
Codec ID : A_AC3
Duration : 1 h 30 min
Bit rate mode : Constant
Bit rate : 448 kb/s
Channel(s) : 6 channels
Channel positions : Front: L C R, Side: L R, LFE
Sampling rate : 48.0 kHz
Frame rate : 31.250 FPS (1536 SPF)
Bit depth : 16 bits
Compression mode : Lossy
Stream size : 292 MiB (5%)
Title : Original
Language : English
Service kind : Complete Main
Default : No
Forced : No

Text #1
ID : 4
Format : UTF-8
Codec ID : S_TEXT/UTF8
Codec ID/Info : UTF-8 Plain Text
Duration : 1 h 25 min
Bit rate : 31 b/s
Count of elements : 570
Stream size : 19.9 KiB (0%)
Title : English SDH
Language : English
Default : No
Forced : No

Text #2
ID : 5
Format : UTF-8
Codec ID : S_TEXT/UTF8
Codec ID/Info : UTF-8 Plain Text
Duration : 1 h 25 min
Bit rate : 23 b/s
Count of elements : 480
Stream size : 14.4 KiB (0%)
Title : English
Language : English
Default : No
Forced : No

Menu
00:00:00.000 : en:Chapter 1
00:07:22.250 : en:Chapter 2
00:13:43.583 : en:Chapter 3
00:23:11.500 : en:Chapter 4
00:31:11.958 : en:Chapter 5
00:42:24.500 : en:Chapter 6
00:49:08.000 : en:Chapter 7
00:55:37.250 : en:Chapter 8
01:01:35.125 : en:Chapter 9
01:10:19.625 : en:Chapter 10
01:15:21.625 : en:Chapter 11
01:23:27.583 : en:Chapter 12
Скріншоти



Джерело:
Особиста оцінка: 8 - мені сподобалося

ЗАЛИШАЙТЕСЬ ЯКОМОГА ДОВШЕ НА РОЗДАЧІ!
ЗАВАНТАЖИВ САМ - ДАЙ ЗАВАНТАЖИТИ ІНШИМ


Авторський реліз (завантажувати можна без реєстрації)
 Трекер:    Зареєстрований   

Завантажити / скачати фільм українською



відео для новачків



 Зареєстрований:   2018-08-18 23:29
 Розмір:   5.88 GB 
 Оцінка фільму:   9.4/10 (Голосів: 9)
   
Інші релізи
   Ворог / Enemy (2013) AVC Ukr/Eng | sub Eng staf777  7 / 0   2.54 GB   2019-09-14 20:29 
   Ворог / Enemy (2013) Remux Ukr/Eng | sub Eng Omikron  1 / 0   18.23 GB   2014-08-28 09:46 
   Ворог / Enemy (2013) 1080p Ukr/Eng | sub Eng Omikron  1 / 0   10.28 GB   2014-08-28 09:46 
   Ворог / Enemy (2013) Omikron  2 / 0   1.45 GB   2014-08-28 09:45 
   Ворог / Enemy (2013) 720p Ukr/Eng | sub Eng Omikron  6 / 0   2.04 GB   2014-08-28 09:44 
hedgar2017 
Частий відвідувач


З нами з: 29.05.17
Востаннє: 04.12.19
Повідомлень: 32

2018-08-01 23:25  
Розсинхрон. На скільки, не зміг визначити. Здається, потоки взагалі з різних джерел і несумісні.
-_-В_E_N_D_Е_R-_- 
Забанено
Забанено


З нами з: 11.07.18
Востаннє: 23.08.18
Повідомлень: 528

2018-08-02 00:16  
hedgar2017 написано:
Розсинхрон. На скільки, не зміг визначити. Здається, потоки взагалі з різних джерел і несумісні.

Так буває коли беруть звук з відео 23.976 і пиричіпають до
ukr_anonymous написано:
Frame rate : 24.000 FPS

Або просто слабке начиння твого копуктера

hedgar2017 
Частий відвідувач


З нами з: 29.05.17
Востаннє: 04.12.19
Повідомлень: 32

2018-08-02 09:41  
-_-В_E_N_D_Е_R-_- написано:
Так буває коли беруть звук з відео 23.976 і пиричіпають до

Так
-_-В_E_N_D_Е_R-_- написано:
Або просто слабке начиння твого копуктера

Ні

ukr_anonymous 
Попереджень: 1
Попереджень: 1 


З нами з: 16.04.18
Востаннє: 17.11.19
Повідомлень: 234

2018-08-18 23:30  
Виправив розсинхрон!

Ваш часовий пояс: GMT + 2 Години

Нова тема   Відповісти