Вітаємо у Зомбіленді / Ласкаво просимо у Зомбіленд / Zombieland (2009) 1080p H.265 2xUkr/Eng | Sub Eng

Нові коментарі

Нова тема   Відповісти
Автор Повідомлення
ukr_anonymous 
Попереджень: 1
Попереджень: 1 


З нами з: 17.04.18
Востаннє: 26.06.19
Повідомлень: 232

2018-07-29 19:07  
Вітаємо у Зомбіленді / Ласкаво просимо у Зомбіленд / Zombieland (2009) 1080p H.265 2xUkr/Eng | Sub Eng

Вітаємо у Зомбіленді / Ласкаво просимо у Зомбіленд / Zombieland (2009) 1080p H.265 2xUkr/Eng | Sub Eng


Жанр: комедія, жахи
Країна: США



Кінокомпанія: Columbia Pictures, Relativity Media, Pariah
Режисер: Рубен Флайшер / Ruben Fleischer
Актори: Джессі Айзенберґ / Jesse Eisenberg, Вуді Гаррельсон / Woody Harrelson, Емма Стоун / Emma Stone, Ебіґейл Бреслін / Abigail Breslin, Ембер Герд / Amber Heard, Білл Мюррей / Bill Murray, Дерек Ґраф / Derek Graf

Сюжет:
В майбутньому відбулися кардинальні зміни і тепер світом керують зомбі. Але на планеті залишилося кілька «нормальних» людей. Головний герой на ймення Коламбус намагається врятуватіся від настирливих потвор, на своєму шляху зустрічаючи колег по нещастю.


Тривалість: 01:27:42
Якість:
Відео:
кодек: H.265 (HEVC)
розмір кадру: 1920 х 800
бітрейт: 8 016 кб/с
бітова глибина: 10 біт
Увага! Перед завантаженням переконайтесь, що ваш пристрій відтворення (та/або ПЗ) підтримує H.265 (HEVC)

Аудіо # 1:
мова: українська
переклад: професійний дубльований
кодек: 5.1
бітрейт: 448 кб/с

Аудіо # 2:
мова: українська
переклад: багатоголосий закадровий
кодек: 2.0
бітрейт: 192 кб/с

Аудіо # 3:
мова: англійська
переклад: оригінал
кодек: 5.1
бітрейт: 294 кб/с

Субтитри:
мова: англійська
тип: програмні (м'які)
формат: *.srt
Info
General
Unique ID : 33655659437508460197974218484356820110 (0x1951D81F83D255BF11976784E1292C8E)
Complete name : E:\Video\Zombieland (2009) 1080p H.265 [2xUKR_ENG].
Format :
Format version : Version 4 / Version 2
File size : 5.48 GiB
Duration : 1 h 27 min
Overall bit rate : 8 953 kb/s
Movie name : Zombieland (2009)
Encoded date : UTC 2018-07-29 15:43:11
Writing application : v22.0.0 ('At The End Of The World') 64-bit
Writing library : libebml v1.3.5 + v1.4.8
Cover : Yes
Attachments : Cover.jpg

Video
ID : 1
Format : HEVC
Format/Info : High Efficiency Video Coding
Format profile : Main [email protected]@Main
Codec ID : V_MPEGH/ISO/HEVC
Duration : 1 h 27 min
Bit rate : 8 016 kb/s
Width : 1 920 pixels
Height : 800 pixels
Display aspect ratio : 2.40:1
Frame rate mode : Constant
Frame rate : 23.976 (24000/1001) FPS
Color space : YUV
Chroma subsampling : 4:2:0
Bit depth : 10 bits
Bits/(Pixel*Frame) : 0.218
Stream size : 4.91 GiB (90%)
Title : HEVC
Writing library : x265 2.3+27-7e137e3ae083:[Windows][GCC 5.3.1][64 bit] 10bit
Encoding settings : cpuid=1173503 / frame-threads=2 / numa-pools=4 / wpp / no-pmode / no-pme / no-psnr / no-ssim / log-level=2 / input-csp=1 / input-res=1920x800 / interlace=0 / total-frames=0 / level-idc=0 / high-tier=1 / uhd-bd=0 / ref=3 / no-allow-non-conformance / no-repeat-headers / annexb / no-aud / no-hrd / info / hash=0 / no-temporal-layers / open-gop / min-keyint=23 / keyint=250 / bframes=4 / b-adapt=2 / b-pyramid / bframe-bias=0 / rc-lookahead=30 / lookahead-slices=0 / scenecut=40 / no-intra-refresh / ctu=64 / min-cu-size=8 / no-rect / no-amp / max-tu-size=32 / tu-inter-depth=1 / tu-intra-depth=1 / limit-tu=0 / rdoq-level=2 / dynamic-rd=0.00 / signhide / no-tskip / nr-intra=0 / nr-inter=0 / no-constrained-intra / strong-intra-smoothing / max-merge=2 / limit-refs=0 / no-limit-modes / me=3 / subme=5 / merange=57 / temporal-mvp / weightp / weightb / no-analyze-src-pics / deblock=-3:-3 / no-sao / no-sao-non-deblock / rd=3 / no-early-skip / rskip / no-fast-intra / no-tskip-fast / no-cu-lossless / no-b-intra / rdpenalty=0 / psy-rd=1.00 / psy-rdoq=1.00 / no-rd-refine / analysis-mode=0 / no-lossless / cbqpoffs=0 / crqpoffs=0 / rc=crf / crf=20.0 / qcomp=0.90 / qpstep=4 / stats-write=0 / stats-read=0 / ipratio=1.40 / pbratio=1.10 / aq-mode=1 / aq-strength=1.00 / cutree / zone-count=0 / no-strict-cbr / qg-size=32 / no-rc-grain / qpmax=69 / qpmin=0 / sar=0 / overscan=0 / videoformat=5 / range=0 / colorprim=2 / transfer=2 / colormatrix=2 / chromaloc=0 / display-window=0 / max-cll=0,0 / min-luma=0 / max-luma=1023 / log2-max-poc-lsb=8 / vui-timing-info / vui-hrd-info / slices=1 / opt-qp-pps / opt-ref-list-length-pps / no-multi-pass-opt-rps / scenecut-bias=0.05 / no-opt-cu-delta-qp / aq-motion / no-hdr / no-hdr-opt / refine-level=5
Default : Yes
Forced : No

Audio #1
ID : 2
Format : AC-3
Format/Info : Audio Coding 3
Codec ID : A_AC3
Duration : 1 h 27 min
Bit rate mode : Constant
Bit rate : 448 kb/s
Channel(s) : 6 channels
Channel positions : Front: L C R, Side: L R, LFE
Sampling rate : 48.0 kHz
Frame rate : 31.250 FPS (1536 SPF)
Bit depth : 16 bits
Compression mode : Lossy
Stream size : 281 MiB (5%)
Title : UKR (DUB)
Language : Ukrainian
Service kind : Complete Main
Default : Yes
Forced : Yes

Audio #2
ID : 3
Format : AC-3
Format/Info : Audio Coding 3
Codec ID : A_AC3
Duration : 1 h 27 min
Bit rate mode : Constant
Bit rate : 192 kb/s
Channel(s) : 2 channels
Channel positions : Front: L R
Sampling rate : 48.0 kHz
Frame rate : 31.250 FPS (1536 SPF)
Bit depth : 16 bits
Compression mode : Lossy
Stream size : 120 MiB (2%)
Title : UKR (ICTV)
Language : Ukrainian
Service kind : Complete Main
Default : No
Forced : No

Audio #3
ID : 4
Format :
Format/Info : Advanced Audio Codec
Format profile : LC
Codec ID : A_AAC-2
Duration : 1 h 27 min
Bit rate : 294 kb/s
Channel(s) : 6 channels
Channel positions : Front: L C R, Side: L R, LFE
Sampling rate : 48.0 kHz
Frame rate : 46.875 FPS (1024 SPF)
Compression mode : Lossy
Stream size : 184 MiB (3%)
Title : LC; 296 Kbps; VBR; 6 ch; 16 bit; 48 khz; Original
Language : English
Default : No
Forced : No

Text
ID : 5
Format : UTF-8
Codec ID : S_TEXT/UTF8
Codec ID/Info : UTF-8 Plain Text
Duration : 1 h 26 min
Bit rate : 49 b/s
Count of elements : 893
Stream size : 31.4 KiB (0%)
Language : English
Default : No
Forced : No

Menu
00:00:00.000 : en:00:00:00.000
00:00:34.618 : en:00:00:34.618
00:02:19.473 : en:00:02:19.473
00:07:15.352 : en:00:07:15.352
00:16:22.732 : en:00:16:22.732
00:21:14.064 : en:00:21:14.064
00:22:20.965 : en:00:22:20.965
00:23:08.637 : en:00:23:08.637
00:23:34.705 : en:00:23:34.705
00:24:05.944 : en:00:24:05.944
00:30:50.724 : en:00:30:50.724
00:34:17.597 : en:00:34:17.597
00:46:35.167 : en:00:46:35.167
00:52:55.464 : en:00:52:55.464
01:05:54.242 : en:01:05:54.242
01:07:01.726 : en:01:07:01.726
01:11:10.641 : en:01:11:10.641
01:12:22.129 : en:01:12:22.129
01:14:24.168 : en:01:14:24.168
01:14:53.572 : en:01:14:53.572
01:17:20.302 : en:01:17:20.302
01:19:13.791 : en:01:19:13.791
01:19:46.532 : en:01:19:46.532
Скріншоти



Джерело:
Особиста оцінка: 10 - без зайвих вагань рекомендую всім!

ЗАЛИШАЙТЕСЬ ЯКОМОГА ДОВШЕ НА РОЗДАЧІ!
ЗАВАНТАЖИВ САМ - ДАЙ ЗАВАНТАЖИТИ ІНШИМ


 Трекер:    Зареєстрований   

Завантажити / скачати фільм українською



відео для новачків



 Зареєстрований:   2018-07-29 19:07
 Розмір:   5.48 GB 
 Оцінка фільму:   10/10 (Голосів: 2)
   
Ваш часовий пояс: GMT + 2 Години

Нова тема   Відповісти