Вітаємо у Зомбіленді / Ласкаво просимо у Зомбіленд / Zombieland (2009) 720p 3xUkr/Eng | Sub Eng

Нові коментарі

Нова тема   Відповісти
Автор Повідомлення
Anonymous 







2018-07-29 16:12  
Вітаємо у Зомбіленді / Ласкаво просимо у Зомбіленд / Zombieland (2009) 720p 3xUkr/Eng | Sub Eng


Вітаємо у Зомбіленді / Ласкаво просимо у Зомбіленд / Zombieland (2009) 720p 3xUkr/Eng | Sub Eng


Жанр: комедія, жахи
Країна: США



Кінокомпанія: Columbia Pictures, Relativity Media, Pariah
Режисер: Рубен Флайшер / Ruben Fleischer
Актори: Джессі Айзенберґ / Jesse Eisenberg, Вуді Гаррельсон / Woody Harrelson, Емма Стоун / Emma Stone, Ебіґейл Бреслін / Abigail Breslin, Ембер Герд / Amber Heard, Білл Мюррей / Bill Murray, Дерек Ґраф / Derek Graf

Сюжет:
В майбутньому відбулися кардинальні зміни і тепер світом керують зомбі. Але на планеті залишилося кілька «нормальних» людей. Головний герой на ймення Коламбус намагається врятуватіся від настирливих потвор, на своєму шляху зустрічаючи колег по нещастю.


Тривалість: 01:27:42
Якість:
Відео:
кодек:
розмір кадру: 1256х524
бітрейт: 2653 кб/с

Аудіо # 1:
мова: українська
переклад: професійний дубльований
кодек: 5.1
бітрейт: 448 кб/с

Аудіо # 2:
мова: українська
переклад: багатоголосий закадровий
кодек: 2.0
бітрейт: 192 кб/с

Аудіо # 3:
мова: українська
переклад: багатоголосий закадровий
кодек: 2.0
бітрейт: 192 кб/с
примітка: після кінцевих титрів (фрагмент не озвучили на ICTV) є вставка з доріжки №2

Аудіо # 4:
мова: англійська
переклад: оригінал
кодек: 5.1
бітрейт: 296 кб/с

Субтитри:
мова: англійська
тип: програмні (м'які)
формат: *.srt
Info
General
Unique ID : 252574396185545122122405289338656262627 (0xBE040F2CF8224F8BB29D6ED9DCC409E3)
Format :
Format version : Version 4 / Version 2
File size : 2.20 GiB
Duration : 1 h 27 min
Overall bit rate : 3 590 kb/s
Movie name : Zombieland (2009) [tRuAVC]
Encoded by : [tRuAVC]Skazhutin
Released date : January 22th 2009
Encoded date : UTC 2018-07-29 12:53:15
Writing application : v6.1.0 ('Old Devil') built on Mar 4 2013 09:10:42
Writing library : libebml v1.3.0 + v1.4.0
Cover : Yes
Comment : // (Source: AVC, 1920x1080, 26125 kbps, 23.976 fps)
Attachments : cover.jpg

Video
ID : 1
Format : AVC
Format/Info : Advanced Video Codec
Format profile : [email protected]
Format settings : CABAC / 10 Ref Frames
Format settings, CABAC : Yes
Format settings, ReFrames : 10 frames
Codec ID : V_MPEG4/ISO/AVC
Duration : 1 h 27 min
Width : 1 256 pixels
Height : 524 pixels
Display aspect ratio : 2.40:1
Frame rate mode : Constant
Frame rate : 23.976 (24000/1001) FPS
Color space : YUV
Chroma subsampling : 4:2:0
Bit depth : 8 bits
Scan type : Progressive
Title : 1256x524 (2.397:1); 2653 Kbps; 23,976 fps
Writing library : core 80 r1376bm 3feaec2
Encoding settings : cabac=1 / ref=10 / deblock=1:-2:-1 / analyse=0x3:0x113 / me=umh / subme=10 / psy=1 / psy_rd=1.1:0.2 / mixed_ref=1 / me_range=32 / chroma_me=1 / trellis=2 / 8x8dct=1 / cqm=0 / deadzone=21,11 / fast_pskip=1 / chroma_qp_offset=-3 / threads=6 / sliced_threads=0 / nr=0 / decimate=1 / mbaff=0 / constrained_intra=0 / bframes=9 / b_pyramid=2 / b_adapt=2 / b_bias=0 / direct=3 / wpredb=1 / wpredp=2 / keyint=250 / keyint_min=25 / scenecut=45 / rc_lookahead=60 / rc=crf / mbtree=1 / crf=18.2 / qcomp=0.65 / qpmin=10 / qpmax=51 / qpstep=4 / ip_ratio=1.40 / aq=4:1.00
Language : English
Default : No
Forced : No
Color range : Limited
Matrix coefficients : BT.709

Audio #1
ID : 2
Format : AC-3
Format/Info : Audio Coding 3
Codec ID : A_AC3
Duration : 1 h 27 min
Bit rate mode : Constant
Bit rate : 448 kb/s
Channel(s) : 6 channels
Channel positions : Front: L C R, Side: L R, LFE
Sampling rate : 48.0 kHz
Frame rate : 31.250 FPS (1536 SPF)
Bit depth : 16 bits
Compression mode : Lossy
Stream size : 281 MiB (12%)
Title : UKR (DUB)
Language : Ukrainian
Service kind : Complete Main
Default : Yes
Forced : Yes

Audio #2
ID : 3
Format : AC-3
Format/Info : Audio Coding 3
Codec ID : A_AC3
Duration : 1 h 27 min
Bit rate mode : Constant
Bit rate : 192 kb/s
Channel(s) : 2 channels
Channel positions : Front: L R
Sampling rate : 48.0 kHz
Frame rate : 31.250 FPS (1536 SPF)
Bit depth : 16 bits
Compression mode : Lossy
Stream size : 120 MiB (5%)
Title : UKR (ICTV)
Language : Ukrainian
Service kind : Complete Main
Default : No
Forced : No

Audio #3
ID : 4
Format :
Format/Info : Advanced Audio Codec
Format profile : LC
Codec ID : A_AAC-2
Duration : 1 h 27 min
Channel(s) : 6 channels
Channel positions : Front: L C R, Side: L R, LFE
Sampling rate : 48.0 kHz
Frame rate : 46.875 FPS (1024 SPF)
Compression mode : Lossy
Title : LC; 296 Kbps; VBR; 6 ch; 16 bit; 48 khz; Original
Language : English
Default : No
Forced : No

Text
ID : 5
Format : UTF-8
Codec ID : S_TEXT/UTF8
Codec ID/Info : UTF-8 Plain Text
Language : English
Default : No
Forced : No
Скріншоти







За запис звуку з каналу Paramount Comedy дякуємо пану Sando7
За українську доріжку №3 подяка п. MAKAPOHHIK, karvai0
Особиста подяка пану denixx за надану матеріальну допомогу на підтримку цього і майбутніх релізів.
Джерело:


 Трекер:    Зареєстрований   

Завантажити / скачати фільм українською



відео для новачків



 Зареєстрований:   2018-08-09 15:21
 Розмір:   2.32 GB 
 Оцінка фільму:   9.8/10 (Голосів: 12)
   
Wowatorrent 
Поважний учасник


З нами з: 24.03.16
Востаннє: 17.07.19
Повідомлень: 167

2018-07-29 17:59  
Добавте в назві 720p.
11FrYkT 
Модератор відео


З нами з: 20.02.11
Востаннє: 17.07.19
Повідомлень: 6046

2018-07-30 10:05  
Anonymous написано:
crf=18.2

тому не міні

Anonymous 







2018-08-09 15:21  
Додано доріжку від Paramount Comedy
staf777 
Відео Гуртом - підтримка та поширення
Відео Гуртом - підтримка та поширення


З нами з: 16.11.16
Востаннє: 17.07.19
Повідомлень: 2666

2018-08-09 17:03  
Хороший фільм
Ваш часовий пояс: GMT + 2 Години

Нова тема   Відповісти